  0
SECTION
  2
HEADER
  9
$ACADVER
  1
AC1009
  9
$INSBASE
 10
0.0
 20
0.0
 30
0.0
  9
$EXTMIN
 10
0.0
 20
0.0
 30
0.0
  9
$EXTMAX
 10
420.0
 20
297.0
 30
0.0
  9
$LIMMIN
 10
0.0
 20
0.0
  9
$LIMMAX
 10
420.0
 20
297.0
  9
$ORTHOMODE
 70
     0
  9
$REGENMODE
 70
     1
  9
$FILLMODE
 70
     1
  9
$QTEXTMODE
 70
     0
  9
$MIRRTEXT
 70
     0
  9
$DRAGMODE
 70
     2
  9
$LTSCALE
 40
1.0
  9
$OSMODE
 70
     0
  9
$ATTMODE
 70
     1
  9
$TEXTSIZE
 40
0.2
  9
$TRACEWID
 40
0.05
  9
$TEXTSTYLE
  7
STANDARD
  9
$CLAYER
  8
0
  9
$CELTYPE
  6
BYLAYER
  9
$CECOLOR
 62
   256
  9
$DIMSCALE
 40
1.0
  9
$DIMASZ
 40
0.18
  9
$DIMEXO
 40
0.0625
  9
$DIMDLI
 40
0.38
  9
$DIMRND
 40
0.0
  9
$DIMDLE
 40
0.0
  9
$DIMEXE
 40
0.18
  9
$DIMTP
 40
0.0
  9
$DIMTM
 40
0.0
  9
$DIMTXT
 40
0.18
  9
$DIMCEN
 40
0.09
  9
$DIMTSZ
 40
0.0
  9
$DIMTOL
 70
     0
  9
$DIMLIM
 70
     0
  9
$DIMTIH
 70
     1
  9
$DIMTOH
 70
     1
  9
$DIMSE1
 70
     0
  9
$DIMSE2
 70
     0
  9
$DIMTAD
 70
     0
  9
$DIMZIN
 70
     0
  9
$DIMBLK
  1

  9
$DIMASO
 70
     1
  9
$DIMSHO
 70
     1
  9
$DIMPOST
  1

  9
$DIMAPOST
  1

  9
$DIMALT
 70
     0
  9
$DIMALTD
 70
     2
  9
$DIMALTF
 40
25.3999999999999986
  9
$DIMLFAC
 40
1.0
  9
$DIMTOFL
 70
     0
  9
$DIMTVP
 40
0.0
  9
$DIMTIX
 70
     0
  9
$DIMSOXD
 70
     0
  9
$DIMSAH
 70
     0
  9
$DIMBLK1
  1

  9
$DIMBLK2
  1

  9
$DIMSTYLE
  2
STANDARD
  9
$DIMCLRD
 70
     0
  9
$DIMCLRE
 70
     0
  9
$DIMCLRT
 70
     0
  9
$DIMTFAC
 40
1.0
  9
$DIMGAP
 40
0.09
  9
$LUNITS
 70
     2
  9
$LUPREC
 70
     4
  9
$SKETCHINC
 40
0.1
  9
$FILLETRAD
 40
0.0
  9
$AUNITS
 70
     0
  9
$AUPREC
 70
     0
  9
$MENU
  1
.
  9
$ELEVATION
 40
0.0
  9
$PELEVATION
 40
0.0
  9
$THICKNESS
 40
0.0
  9
$LIMCHECK
 70
     0
  9
$BLIPMODE
 70
     0
  9
$CHAMFERA
 40
0.0
  9
$CHAMFERB
 40
0.0
  9
$SKPOLY
 70
     0
  9
$TDCREATE
 40
2459473.594282406847924
  9
$TDUPDATE
 40
2459473.594282406847924
  9
$TDINDWG
 40
0.0000231481
  9
$TDUSRTIMER
 40
0.0000231481
  9
$USRTIMER
 70
     1
  9
$ANGBASE
 50
0.0
  9
$ANGDIR
 70
     0
  9
$PDMODE
 70
     0
  9
$PDSIZE
 40
0.0
  9
$PLINEWID
 40
0.0
  9
$COORDS
 70
     0
  9
$SPLFRAME
 70
     0
  9
$SPLINETYPE
 70
     6
  9
$SPLINESEGS
 70
     8
  9
$ATTDIA
 70
     1
  9
$ATTREQ
 70
     1
  9
$HANDLING
 70
     1
  9
$HANDSEED
  5
BE6
  9
$SURFTAB1
 70
     6
  9
$SURFTAB2
 70
     6
  9
$SURFTYPE
 70
     6
  9
$SURFU
 70
     6
  9
$SURFV
 70
     6
  9
$UCSNAME
  2

  9
$UCSORG
 10
0.0
 20
0.0
 30
0.0
  9
$UCSXDIR
 10
1.0
 20
0.0
 30
0.0
  9
$UCSYDIR
 10
0.0
 20
1.0
 30
0.0
  9
$PUCSNAME
  2

  9
$PUCSORG
 10
0.0
 20
0.0
 30
0.0
  9
$PUCSXDIR
 10
1.0
 20
0.0
 30
0.0
  9
$PUCSYDIR
 10
0.0
 20
1.0
 30
0.0
  9
$USERI1
 70
     0
  9
$USERI2
 70
     0
  9
$USERI3
 70
     0
  9
$USERI4
 70
     0
  9
$USERI5
 70
     0
  9
$USERR1
 40
0.0
  9
$USERR2
 40
0.0
  9
$USERR3
 40
0.0
  9
$USERR4
 40
0.0
  9
$USERR5
 40
0.0
  9
$WORLDVIEW
 70
     1
  9
$SHADEDGE
 70
     3
  9
$SHADEDIF
 70
    70
  9
$TILEMODE
 70
     1
  9
$MAXACTVP
 70
    64
  9
$PLIMCHECK
 70
     0
  9
$PEXTMIN
 10
0.0
 20
0.0
 30
0.0
  9
$PEXTMAX
 10
420.0
 20
297.0
 30
0.0
  9
$PLIMMIN
 10
0.0
 20
0.0
  9
$PLIMMAX
 10
420.0
 20
297.0
  9
$UNITMODE
 70
     0
  9
$VISRETAIN
 70
     1
  9
$PLINEGEN
 70
     0
  9
$PSLTSCALE
 70
     1
  0
ENDSEC
  0
SECTION
  2
TABLES
  0
TABLE
  2
VPORT
 70
     1
  0
VPORT
  2
*ACTIVE
 70
     0
 10
0.0
 20
0.0
 11
1.0
 21
1.0
 12
210.0
 22
148.5
 13
0.0
 23
0.0
 14
1.0
 24
1.0
 15
0.0
 25
0.0
 16
0.0
 26
0.0
 36
1.0
 17
0.0
 27
0.0
 37
0.0
 40
297.0
 41
1.4141414141414139
 42
50.0
 43
0.0
 44
0.0
 50
0.0
 51
0.0
 71
     0
 72
   100
 73
     1
 74
     1
 75
     0
 76
     0
 77
     0
 78
     0
  0
ENDTAB
  0
TABLE
  2
LTYPE
 70
    59
  0
LTYPE
  2
CONTINUOUS
 70
     0
  3
Solid line
 72
    65
 73
     0
 40
0.0
  0
LTYPE
  2
SECTION_VIEW_LINES
 70
     0
  3
Section View Lines
 72
    65
 73
     4
 40
0.8406
 49
0.6614
 49
-0.0827
 49
0.0138
 49
-0.0827
  0
LTYPE
  2
CHAIN
 70
     0
  3
Chain ____ _ ____ _ ____ _ ____ _ ____ _ ____
 72
    65
 73
     4
 40
0.3543
 49
0.2362
 49
-0.0295
 49
0.0591
 49
-0.0295
  0
LTYPE
  2
DASH_DOT
 70
     0
  3
Dash dot _._._._._._._._._._._._._._._.
 72
    65
 73
     4
 40
0.182
 49
0.1181
 49
-0.0295
 49
0.0049
 49
-0.0295
  0
LTYPE
  2
DASH_DOUBLE_DOT
 70
     0
  3
Dash Double Dot __ __ . __ __ . __ __ . __ _
 72
    65
 73
     6
 40
0.2164
 49
0.1181
 49
-0.0295
 49
0.0049
 49
-0.0295
 49
0.0049
 49
-0.0295
  0
LTYPE
  2
DASH_TRIPLE_DOT
 70
     0
  3
Dash Triple-Dot _ . . . _ . . . _ . . . _
 72
    65
 73
     8
 40
0.2508
 49
0.1181
 49
-0.0295
 49
0.0049
 49
-0.0295
 49
0.0049
 49
-0.0295
 49
0.0049
 49
-0.0295
  0
LTYPE
  2
DASHED
 70
     0
  3
Dashed __ __ __ __ __ __ __ __ __ __ __ __ __ _
 72
    65
 73
     2
 40
0.2068
 49
0.1655
 49
-0.0413
  0
LTYPE
  2
DASHED_SPACE
 70
     0
  3
Dashed Space __ __ __ __ __ __ __ __ __ __ __ _
 72
    65
 73
     2
 40
0.2067
 49
0.1654
 49
-0.0413
  0
LTYPE
  2
DOTTED
 70
     0
  3
Dotted . . . . . . . . . . . . . . . . . . . . 
 72
    65
 73
     2
 40
0.0481
 49
0.0068
 49
-0.0413
  0
LTYPE
  2
DOUBLE_DASH_CHAIN
 70
     0
  3
Double Dash Chain ___ _ _ ___ _ _ ___ _ _ ___ _
 72
    65
 73
     6
 40
1.2402999999999991
 49
0.6614
 49
-0.0827
 49
0.1654
 49
-0.0827
 49
0.1654
 49
-0.0827
  0
LTYPE
  2
DOUBLE_DASH_DOT
 70
     0
  3
Double Dash Dot __ __ . __ __ . __ __ . __ _
 72
    65
 73
     6
 40
0.3296
 49
0.1181
 49
-0.0295
 49
0.1181
 49
-0.0295
 49
0.0049
 49
-0.0295
  0
LTYPE
  2
DOUBLE_DASH_DOUBLE_DOT
 70
     0
  3
Double Dash Double Dot _ _ . . _ _ . . _ _
 72
    65
 73
     8
 40
0.364
 49
0.1181
 49
-0.0295
 49
0.1181
 49
-0.0295
 49
0.0049
 49
-0.0295
 49
0.0049
 49
-0.0295
  0
LTYPE
  2
DOUBLE_DASH_TRIPLE_DOT
 70
     0
  3
Double Dash Triple Dot __ __ . . . __ __ . . .
 72
    65
 73
    10
 40
0.3984
 49
0.1181
 49
-0.0295
 49
0.1181
 49
-0.0295
 49
0.0049
 49
-0.0295
 49
0.0049
 49
-0.0295
 49
0.0049
 49
-0.0295
  0
LTYPE
  2
LONG_DASH_DOTTED
 70
     0
  3
Long Dash Dotted ____ . ____ . ____ . ____ . _
 72
    65
 73
     4
 40
0.3001
 49
0.2362
 49
-0.0295
 49
0.0049
 49
-0.0295
  0
LTYPE
  2
LONG_DASH_DOUBLE_DOT
 70
     0
  3
Long Dash Double Dot ____ . . ____ . . ____ . .
 72
    65
 73
     6
 40
0.3345
 49
0.2362
 49
-0.0295
 49
0.0049
 49
-0.0295
 49
0.0049
 49
-0.0295
  0
LTYPE
  2
LONG_DASH_TRIPLE_DOT
 70
     0
  3
Long Dash Triple Dot ____ ... ____ ... ____
 72
    65
 73
     8
 40
0.3689
 49
0.2362
 49
-0.0295
 49
0.0049
 49
-0.0295
 49
0.0049
 49
-0.0295
 49
0.0049
 49
-0.0295
  0
LTYPE
  2
BORDER
 70
     0
  3
Border __ __ . __ __ . __ __ . __ __ . __ __ .
 72
    65
 73
     6
 40
44.4500000000000028
 49
12.6999999999999993
 49
-6.3499999999999988
 49
12.6999999999999993
 49
-6.3499999999999988
 49
0.0
 49
-6.3499999999999988
  0
LTYPE
  2
BORDER2
 70
     0
  3
Border (.5x) __.__.__.__.__.__.__.__.__.__.__.
 72
    65
 73
     6
 40
22.2250000000000014
 49
6.3499999999999988
 49
-3.1749999999999989
 49
6.3499999999999988
 49
-3.1749999999999989
 49
0.0
 49
-3.1749999999999989
  0
LTYPE
  2
BORDERX2
 70
     0
  3
Border (2x) ____  ____  .  ____  ____  .  ___
 72
    65
 73
     6
 40
88.9000000000000057
 49
25.3999999999999986
 49
-12.6999999999999993
 49
25.3999999999999986
 49
-12.6999999999999993
 49
0.0
 49
-12.6999999999999993
  0
LTYPE
  2
CENTER
 70
     0
  3
Center ____ _ ____ _ ____ _ ____ _ ____ _ ____
 72
    65
 73
     4
 40
50.7999999999999972
 49
31.75
 49
-6.3499999999999988
 49
6.3499999999999988
 49
-6.3499999999999988
  0
LTYPE
  2
CENTER2
 70
     0
  3
Center (.5x) ___ _ ___ _ ___ _ ___ _ ___ _ ___
 72
    65
 73
     4
 40
28.5749999999999993
 49
19.0500000000000007
 49
-3.1749999999999989
 49
3.1749999999999989
 49
-3.1749999999999989
  0
LTYPE
  2
CENTERX2
 70
     0
  3
Center (2x) ________  __  ________  __  _____
 72
    65
 73
     4
 40
101.5999999999999943
 49
63.5
 49
-12.6999999999999993
 49
12.6999999999999993
 49
-12.6999999999999993
  0
LTYPE
  2
DASHDOT2
 70
     0
  3
Dash dot (.5x) _._._._._._._._._._._._._._._.
 72
    65
 73
     4
 40
12.6999999999999993
 49
6.3499999999999988
 49
-3.1749999999999989
 49
0.0
 49
-3.1749999999999989
  0
LTYPE
  2
DASHDOTX2
 70
     0
  3
Dash dot (2x) ____  .  ____  .  ____  .  ___
 72
    65
 73
     4
 40
50.7999999999999972
 49
25.3999999999999986
 49
-12.6999999999999993
 49
0.0
 49
-12.6999999999999993
  0
LTYPE
  2
DASHED2
 70
     0
  3
Dashed (.5x) _ _ _ _ _ _ _ _ _ _ _ _ _ _ _ _ _
 72
    65
 73
     2
 40
9.5249999999999986
 49
6.3499999999999988
 49
-3.1749999999999989
  0
LTYPE
  2
DASHEDX2
 70
     0
  3
Dashed (2x) ____  ____  ____  ____  ____  ___
 72
    65
 73
     2
 40
38.1000000000000014
 49
25.3999999999999986
 49
-12.6999999999999993
  0
LTYPE
  2
DIVIDE
 70
     0
  3
Divide ____ . . ____ . . ____ . . ____ . . ____
 72
    65
 73
     6
 40
31.75
 49
12.6999999999999993
 49
-6.3499999999999988
 49
0.0
 49
-6.3499999999999988
 49
0.0
 49
-6.3499999999999988
  0
LTYPE
  2
DIVIDE2
 70
     0
  3
Divide (.5x) __..__..__..__..__..__..__..__.._
 72
    65
 73
     6
 40
15.875
 49
6.3499999999999988
 49
-3.1749999999999989
 49
0.0
 49
-3.1749999999999989
 49
0.0
 49
-3.1749999999999989
  0
LTYPE
  2
DIVIDEX2
 70
     0
  3
Divide (2x) ________  .  .  ________  .  .  _
 72
    65
 73
     6
 40
63.4999999999999929
 49
25.3999999999999986
 49
-12.6999999999999993
 49
0.0
 49
-12.6999999999999993
 49
0.0
 49
-12.6999999999999993
  0
LTYPE
  2
DOT
 70
     0
  3
Dot . . . . . . . . . . . . . . . . . . . . . .
 72
    65
 73
     2
 40
6.3499999999999988
 49
0.0
 49
-6.3499999999999988
  0
LTYPE
  2
DOT2
 70
     0
  3
Dot (.5x) .....................................
 72
    65
 73
     2
 40
3.1749999999999989
 49
0.0
 49
-3.1749999999999989
  0
LTYPE
  2
DOTX2
 70
     0
  3
Dot (2x) .  .  .  .  .  .  .  .  .  .  .  .  . 
 72
    65
 73
     2
 40
12.6999999999999993
 49
0.0
 49
-12.6999999999999993
  0
LTYPE
  2
HIDDEN
 70
     0
  3
Hidden __ __ __ __ __ __ __ __ __ __ __ __ __ _
 72
    65
 73
     2
 40
9.5249999999999986
 49
6.3499999999999988
 49
-3.1749999999999989
  0
LTYPE
  2
HIDDEN2
 70
     0
  3
Hidden (.5x) _ _ _ _ _ _ _ _ _ _ _ _ _ _ _ _ _
 72
    65
 73
     2
 40
4.7624999999999993
 49
3.1749999999999989
 49
-1.587499999999999
  0
LTYPE
  2
HIDDENX2
 70
     0
  3
Hidden (2x) ____ ____ ____ ____ ____ ____ ____
 72
    65
 73
     2
 40
19.0500000000000007
 49
12.6999999999999993
 49
-6.3499999999999988
  0
LTYPE
  2
PHANTOM
 70
     0
  3
Phantom ______  __  __  ______  __  __  ______
 72
    65
 73
     6
 40
63.5
 49
31.75
 49
-6.3499999999999988
 49
6.3499999999999988
 49
-6.3499999999999988
 49
6.3499999999999988
 49
-6.3499999999999988
  0
LTYPE
  2
PHANTOM2
 70
     0
  3
Phantom (.5x) ___ _ _ ___ _ _ ___ _ _ ___ _ _
 72
    65
 73
     6
 40
31.75
 49
15.875
 49
-3.1749999999999989
 49
3.1749999999999989
 49
-3.1749999999999989
 49
3.1749999999999989
 49
-3.1749999999999989
  0
LTYPE
  2
PHANTOMX2
 70
     0
  3
Phantom (2x) ____________    ____    ____   _
 72
    65
 73
     6
 40
127.0
 49
63.5
 49
-12.6999999999999993
 49
12.6999999999999993
 49
-12.6999999999999993
 49
12.6999999999999993
 49
-12.6999999999999993
  0
LTYPE
  2
ACAD_ISO02W100
 70
     0
  3
ISO dash __ __ __ __ __ __ __ __ __ __ __ __ __
 72
    65
 73
     2
 40
15.0
 49
12.0
 49
-3.0
  0
LTYPE
  2
ACAD_ISO03W100
 70
     0
  3
ISO dash space __    __    __    __    __    __
 72
    65
 73
     2
 40
30.0
 49
12.0
 49
-18.0
  0
LTYPE
  2
ACAD_ISO04W100
 70
     0
  3
ISO long-dash dot ____ . ____ . ____ . ____ . _
 72
    65
 73
     4
 40
30.0
 49
24.0
 49
-3.0
 49
0.0
 49
-3.0
  0
LTYPE
  2
ACAD_ISO05W100
 70
     0
  3
ISO long-dash double-dot ____ .. ____ .. ____ .
 72
    65
 73
     6
 40
33.0
 49
24.0
 49
-3.0
 49
0.0
 49
-3.0
 49
0.0
 49
-3.0
  0
LTYPE
  2
ACAD_ISO06W100
 70
     0
  3
ISO long-dash triple-dot ____ ... ____ ... ____
 72
    65
 73
     8
 40
36.0
 49
24.0
 49
-3.0
 49
0.0
 49
-3.0
 49
0.0
 49
-3.0
 49
0.0
 49
-3.0
  0
LTYPE
  2
ACAD_ISO07W100
 70
     0
  3
ISO dot . . . . . . . . . . . . . . . . . . . .
 72
    65
 73
     2
 40
3.0
 49
0.0
 49
-3.0
  0
LTYPE
  2
ACAD_ISO08W100
 70
     0
  3
ISO long-dash short-dash ____ __ ____ __ ____ _
 72
    65
 73
     4
 40
36.0
 49
24.0
 49
-3.0
 49
6.0
 49
-3.0
  0
LTYPE
  2
ACAD_ISO09W100
 70
     0
  3
ISO long-dash double-short-dash ____ __ __ ____
 72
    65
 73
     6
 40
45.0
 49
24.0
 49
-3.0
 49
6.0
 49
-3.0
 49
6.0
 49
-3.0
  0
LTYPE
  2
ACAD_ISO10W100
 70
     0
  3
ISO dash dot __ . __ . __ . __ . __ . __ . __ .
 72
    65
 73
     4
 40
18.0
 49
12.0
 49
-3.0
 49
0.0
 49
-3.0
  0
LTYPE
  2
ACAD_ISO11W100
 70
     0
  3
ISO double-dash dot __ __ . __ __ . __ __ . __ 
 72
    65
 73
     6
 40
33.0
 49
12.0
 49
-3.0
 49
12.0
 49
-3.0
 49
0.0
 49
-3.0
  0
LTYPE
  2
ACAD_ISO12W100
 70
     0
  3
ISO dash double-dot __ . . __ . . __ . . __ . .
 72
    65
 73
     6
 40
21.0
 49
12.0
 49
-3.0
 49
0.0
 49
-3.0
 49
0.0
 49
-3.0
  0
LTYPE
  2
ACAD_ISO13W100
 70
     0
  3
ISO double-dash double-dot __ __ . . __ __ . . 
 72
    65
 73
     8
 40
36.0
 49
12.0
 49
-3.0
 49
12.0
 49
-3.0
 49
0.0
 49
-3.0
 49
0.0
 49
-3.0
  0
LTYPE
  2
ACAD_ISO14W100
 70
     0
  3
ISO dash triple-dot __ . . . __ . . . __ . . . 
 72
    65
 73
     8
 40
24.0
 49
12.0
 49
-3.0
 49
0.0
 49
-3.0
 49
0.0
 49
-3.0
 49
0.0
 49
-3.0
  0
LTYPE
  2
ACAD_ISO15W100
 70
     0
  3
ISO double-dash triple-dot __ __ . . . __ __ . 
 72
    65
 73
    10
 40
39.0
 49
12.0
 49
-3.0
 49
12.0
 49
-3.0
 49
0.0
 49
-3.0
 49
0.0
 49
-3.0
 49
0.0
 49
-3.0
  0
LTYPE
  2
FENCELINE1
 70
     0
  3
Fenceline circle ----0-----0----0-----0----0---
 72
    65
 73
     4
 40
36.8299999999999983
 49
6.3499999999999988
 49
-2.54
 49
-2.54
 49
25.3999999999999986
  0
LTYPE
  2
FENCELINE2
 70
     0
  3
Fenceline square ----[]-----[]----[]-----[]----
 72
    65
 73
     4
 40
36.8299999999999983
 49
6.3499999999999988
 49
-2.54
 49
-2.54
 49
25.3999999999999986
  0
LTYPE
  2
TRACKS
 70
     0
  3
Tracks -|-|-|-|-|-|-|-|-|-|-|-|-|-|-|-|-|-|-|-|
 72
    65
 73
     2
 40
7.6200000000000001
 49
3.8100000000000001
 49
3.8100000000000001
  0
LTYPE
  2
BATTING
 70
     0
  3
Batting SSSSSSSSSSSSSSSSSSSSSSSSSSSSSSSSSSSSSSS
 72
    65
 73
     4
 40
10.1625399999999999
 49
0.00254
 49
-2.54
 49
-5.0800000000000001
 49
-2.54
  0
LTYPE
  2
HOT_WATER_SUPPLY
 70
     0
  3
Hot water supply ---- HW ---- HW ---- HW ----
 72
    65
 73
     3
 40
22.8599999999999994
 49
12.6999999999999993
 49
-5.0800000000000001
 49
-5.0800000000000001
  0
LTYPE
  2
GAS_LINE
 70
     0
  3
Gas line ----GAS----GAS----GAS----GAS----GAS---
 72
    65
 73
     3
 40
24.129999999999999
 49
12.6999999999999993
 49
-5.0800000000000001
 49
-6.3499999999999988
  0
LTYPE
  2
ZIGZAG
 70
     0
  3
Zig zag /\/\/\/\/\/\/\/\/\/\/\/\/\/\/\/\/\/\/\/
 72
    65
 73
     4
 40
20.32254
 49
0.00254
 49
-5.0800000000000001
 49
-10.1600000000000001
 49
-5.0800000000000001
  0
ENDTAB
  0
TABLE
  2
LAYER
 70
    77
  0
LAYER
  2
0
 70
     0
 62
     7
  6
CONTINUOUS
  0
LAYER
  2
LINIA_śRODKOWA__ISO_
 70
     0
 62
     7
  6
CONTINUOUS
  0
LAYER
  2
SYMBOL__ISO_
 70
     0
 62
     7
  6
CONTINUOUS
  0
LAYER
  2
UKRYTE__ISO_
 70
     0
 62
     7
  6
DASHED
  0
LAYER
  2
WIDOCZNE__ISO_
 70
     0
 62
     7
  6
CONTINUOUS
  0
LAYER
  2
WYMIAR__ISO_
 70
     0
 62
     7
  6
CONTINUOUS
  0
LAYER
  2
ZNACZNIK_śRODKA__ISO_
 70
     0
 62
     7
  6
CONTINUOUS
  0
LAYER
  2
DEFPOINTS
 70
     0
 62
     7
  6
CONTINUOUS
  0
ENDTAB
  0
TABLE
  2
STYLE
 70
    17
  0
STYLE
  2
STANDARD
 70
     0
 40
0.0
 41
1.0
 50
0.0
 71
     0
 42
0.2
  3
txt
  4

  0
STYLE
  2
ANNOTATIVE
 70
     0
 40
0.0
 41
1.0
 50
0.0
 71
     0
 42
0.2
  3
txt
  4

  0
STYLE
  2

 70
     1
 40
0.0
 41
1.0
 50
0.0
 71
     0
 42
0.2
  3
ltypeshp.shx
  4

  0
STYLE
  2
RAZITKO_DATA
 70
     0
 40
0.0
 41
1.0
 50
0.0
 71
     0
 42
0.2
  3
txt.shx
  4
bigfont.shx
  0
STYLE
  2
RAZITKO_POPIS
 70
     0
 40
0.0
 41
1.0
 50
0.0
 71
     0
 42
0.2
  3
txt.shx
  4
bigfont.shx
  0
STYLE
  2
TEKST_ETYKIETY__ISO_
 70
     0
 40
0.0
 41
1.0
 50
0.0
 71
     0
 42
0.2
  3
txt.shx
  4
bigfont.shx
  0
STYLE
  2
TEKST_NOTATKI__ISO_
 70
     0
 40
0.0
 41
1.0
 50
0.0
 71
     0
 42
0.2
  3
txt.shx
  4
bigfont.shx
  0
STYLE
  2
TEXT
 70
     0
 40
0.0
 41
1.0
 50
0.0
 71
     0
 42
0.2
  3
txt.shx
  4
bigfont.shx
  0
STYLE
  2
TEXT_POPISU__DIN_
 70
     0
 40
0.0
 41
1.0
 50
0.0
 71
     0
 42
0.2
  3
txt.shx
  4
bigfont.shx
  0
STYLE
  2
TEXT_POZNáMKY__DIN_
 70
     0
 40
0.0
 41
1.0
 50
0.0
 71
     0
 42
0.2
  3
txt.shx
  4
bigfont.shx
  0
STYLE
  2
TEXT__2_0
 70
     0
 40
0.0
 41
1.0
 50
0.0
 71
     0
 42
0.2
  3
txt.shx
  4
bigfont.shx
  0
STYLE
  2
TEXT__2_5
 70
     0
 40
0.0
 41
1.0
 50
0.0
 71
     0
 42
0.2
  3
txt.shx
  4
bigfont.shx
  0
STYLE
  2
TEXT__3_0
 70
     0
 40
0.0
 41
1.0
 50
0.0
 71
     0
 42
0.2
  3
txt.shx
  4
bigfont.shx
  0
STYLE
  2
TEXT__3_5
 70
     0
 40
0.0
 41
1.0
 50
0.0
 71
     0
 42
0.2
  3
txt.shx
  4
bigfont.shx
  0
STYLE
  2
TEXT__5_0
 70
     0
 40
0.0
 41
1.0
 50
0.0
 71
     0
 42
0.2
  3
txt.shx
  4
bigfont.shx
  0
STYLE
  2
TEXT_KOTY
 70
     0
 40
0.0
 41
1.0
 50
0.0
 71
     0
 42
0.2
  3
txt.shx
  4
bigfont.shx
  0
STYLE
  2
MtXpl_Roboto
 70
     0
 40
0.0
 41
1.0
 50
0.0
 71
     0
 42
0.2
  3
txt
  4

  0
ENDTAB
  0
TABLE
  2
VIEW
 70
     0
  0
ENDTAB
  0
TABLE
  2
UCS
 70
     0
  0
ENDTAB
  0
TABLE
  2
APPID
 70
     3
  0
APPID
  2
ACAD
 70
     0
  0
APPID
  2
ACADANNOTATIVE
 70
     0
  0
APPID
  2
ACAD_MLEADERVER
 70
     0
  0
ENDTAB
  0
TABLE
  2
DIMSTYLE
 70
    20
  0
DIMSTYLE
  2
STANDARD
 70
     0
  3

  4

  5

  6

  7

 40
1.0
 41
0.18
 42
0.0625
 43
0.38
 44
0.18
 45
0.0
 46
0.0
 47
0.0
 48
0.0
140
0.18
141
0.09
142
0.0
143
25.3999999999999986
144
1.0
145
0.0
146
1.0
147
0.09
 71
     0
 72
     0
 73
     1
 74
     1
 75
     0
 76
     0
 77
     0
 78
     0
170
     0
171
     2
172
     0
173
     0
174
     0
175
     0
176
     0
177
     0
178
     0
  0
DIMSTYLE
  2
ANNOTATIVE
 70
     0
  3

  4

  5

  6

  7

 40
1.0
 41
0.18
 42
0.0625
 43
0.38
 44
0.18
 45
0.0
 46
0.0
 47
0.0
 48
0.0
140
0.18
141
0.09
142
0.0
143
25.3999999999999986
144
1.0
145
0.0
146
1.0
147
0.09
 71
     0
 72
     0
 73
     1
 74
     1
 75
     0
 76
     0
 77
     0
 78
     0
170
     0
171
     2
172
     0
173
     0
174
     0
175
     0
176
     0
177
     0
178
     0
  0
DIMSTYLE
  2
DOMYśLNE_-_METODA_1B__ISO_
 70
     0
  3

  4

  5

  6

  7

 40
1.0
 41
2.5
 42
0.0
 43
5.9999999999999991
 44
3.1749999999999989
 45
0.00000001
 46
10.0
 47
0.0
 48
0.0
140
3.5
141
0.09
142
0.0
143
0.0393700787401575
144
1.0
145
0.0
146
1.0
147
0.762
 71
     0
 72
     0
 73
     0
 74
     1
 75
     0
 76
     0
 77
     1
 78
     8
170
     0
171
     3
172
     1
173
     0
174
     0
175
     0
176
   256
177
   256
178
   256
  0
DIMSTYLE
  2
DOMYśLNE_-_METODA_1B__ISO0
 70
     0
  3

  4

  5

  6

  7

 40
1.0
 41
2.5
 42
0.0
 43
5.9999999999999991
 44
3.1749999999999989
 45
0.00000001
 46
10.0
 47
0.0
 48
0.0
140
3.5
141
0.09
142
0.0
143
0.0393700787401575
144
1.0
145
0.0
146
1.0
147
0.762
 71
     0
 72
     0
 73
     0
 74
     1
 75
     0
 76
     0
 77
     1
 78
     8
170
     0
171
     3
172
     1
173
     0
174
     0
175
     0
176
   256
177
   256
178
   256
  0
DIMSTYLE
  2
KOPIA_DOMYśLNE__ISO_
 70
     0
  3

  4

  5

  6

  7

 40
1.0
 41
2.5
 42
0.0
 43
10.0
 44
3.1749999999999989
 45
0.00000001
 46
10.0
 47
0.0
 48
0.0
140
3.5
141
0.09
142
0.0
143
0.0393700787401575
144
1.0
145
0.0
146
1.0014857053756709
147
0.762
 71
     0
 72
     0
 73
     0
 74
     1
 75
     0
 76
     0
 77
     1
 78
     8
170
     0
171
     3
172
     1
173
     0
174
     0
175
     0
176
   256
177
   256
178
   256
  0
DIMSTYLE
  2
KOPIA_DOMYśLNE__ISO_$7
 70
     0
  3

  4

  5

  6

  7

 40
1.0
 41
2.5
 42
0.0
 43
10.0
 44
3.1749999999999989
 45
0.00000001
 46
10.0
 47
0.0
 48
0.0
140
3.5
141
0.09
142
0.0
143
0.0393700787401575
144
1.0
145
0.0
146
1.0014857053756709
147
0.762
 71
     0
 72
     0
 73
     0
 74
     1
 75
     0
 76
     0
 77
     1
 78
     8
170
     0
171
     3
172
     1
173
     0
174
     0
175
     0
176
   256
177
   256
178
   256
  0
DIMSTYLE
  2
KóTOVáNí
 70
     0
  3

  4

  5

  6

  7

 40
1.0
 41
2.5
 42
0.1
 43
5.9999999999999991
 44
0.5
 45
0.00000001
 46
10.0
 47
0.0
 48
0.0
140
2.5
141
0.09
142
0.0
143
0.0393700787401575
144
1.0
145
0.0
146
1.3999999761581421
147
0.5
 71
     0
 72
     0
 73
     0
 74
     1
 75
     0
 76
     0
 77
     1
 78
     8
170
     0
171
     3
172
     1
173
     0
174
     0
175
     0
176
   256
177
   256
178
   256
  0
DIMSTYLE
  2
KóTOVáNí$7
 70
     0
  3

  4

  5

  6

  7

 40
1.0
 41
2.5
 42
0.1
 43
5.9999999999999991
 44
0.5
 45
0.00000001
 46
10.0
 47
0.0
 48
0.0
140
2.5
141
0.09
142
0.0
143
0.0393700787401575
144
1.0
145
0.0
146
1.3999999761581421
147
0.5
 71
     0
 72
     0
 73
     0
 74
     1
 75
     0
 76
     0
 77
     1
 78
     8
170
     0
171
     3
172
     1
173
     0
174
     0
175
     0
176
   256
177
   256
178
   256
  0
DIMSTYLE
  2
VýCHOZí_-_METODA_2A__DIN_
 70
     0
  3

  4

  5

  6

  7

 40
1.0
 41
2.5
 42
0.8
 43
5.9999999999999991
 44
3.1749999999999989
 45
0.00000001
 46
10.0
 47
0.0
 48
0.0
140
3.5
141
0.09
142
0.0
143
0.0393700787401575
144
1.0
145
0.0
146
1.0
147
0.8
 71
     0
 72
     0
 73
     1
 74
     1
 75
     0
 76
     0
 77
     1
 78
     8
170
     1
171
     3
172
     1
173
     0
174
     0
175
     0
176
   256
177
   256
178
   256
  0
DIMSTYLE
  2
VýCHOZí_-_METODA_2A__DIN_$
 70
     0
  3

  4

  5

  6

  7

 40
1.0
 41
2.5
 42
0.8
 43
5.9999999999999991
 44
3.1749999999999989
 45
0.00000001
 46
10.0
 47
0.0
 48
0.0
140
3.5
141
0.09
142
0.0
143
0.0393700787401575
144
1.0
145
0.0
146
1.0
147
0.8
 71
     0
 72
     0
 73
     1
 74
     1
 75
     0
 76
     0
 77
     1
 78
     8
170
     1
171
     3
172
     1
173
     0
174
     0
175
     0
176
   256
177
   256
178
   256
  0
DIMSTYLE
  2
VýCHOZí_-_METODA_2B__DIN_
 70
     0
  3

  4

  5

  6

  7

 40
1.0
 41
2.5
 42
0.0
 43
5.9999999999999991
 44
3.1749999999999989
 45
0.00000001
 46
10.0
 47
0.0
 48
0.0
140
3.5
141
0.09
142
0.0
143
0.0393700787401575
144
1.0
145
0.0
146
1.0
147
0.8
 71
     0
 72
     0
 73
     1
 74
     1
 75
     0
 76
     0
 77
     1
 78
     8
170
     0
171
     3
172
     1
173
     0
174
     0
175
     0
176
   256
177
   256
178
   256
  0
DIMSTYLE
  2
VýCHOZí_-_METODA_2B__DIN_$
 70
     0
  3

  4

  5

  6

  7

 40
1.0
 41
2.5
 42
0.0
 43
5.9999999999999991
 44
3.1749999999999989
 45
0.00000001
 46
10.0
 47
0.0
 48
0.0
140
3.5
141
0.09
142
0.0
143
0.0393700787401575
144
1.0
145
0.0
146
1.0
147
0.8
 71
     0
 72
     0
 73
     1
 74
     1
 75
     0
 76
     0
 77
     1
 78
     8
170
     0
171
     3
172
     1
173
     0
174
     0
175
     0
176
   256
177
   256
178
   256
  0
DIMSTYLE
  2
VýCHOZí__DIN_
 70
     0
  3

  4

  5

  6

  7

 40
1.0
 41
2.5
 42
0.8
 43
5.9999999999999991
 44
3.1749999999999989
 45
0.00000001
 46
10.0
 47
0.0
 48
0.0
140
3.5
141
0.09
142
0.0
143
0.0393700787401575
144
1.0
145
0.0
146
1.0
147
0.8
 71
     0
 72
     0
 73
     0
 74
     0
 75
     0
 76
     0
 77
     1
 78
     8
170
     0
171
     3
172
     1
173
     0
174
     0
175
     0
176
   256
177
   256
178
   256
  0
DIMSTYLE
  2
VýCHOZí__DIN_$7
 70
     0
  3

  4

  5

  6

  7

 40
1.0
 41
2.5
 42
0.8
 43
5.9999999999999991
 44
3.1749999999999989
 45
0.00000001
 46
10.0
 47
0.0
 48
0.0
140
3.5
141
0.09
142
0.0
143
0.0393700787401575
144
1.0
145
0.0
146
1.0
147
0.8
 71
     0
 72
     0
 73
     0
 74
     0
 75
     0
 76
     0
 77
     1
 78
     8
170
     0
171
     3
172
     1
173
     0
174
     0
175
     0
176
   256
177
   256
178
   256
  0
DIMSTYLE
  2
ALTERNATIVNí__ISO_
 70
     0
  3

  4

  5

  6

  7

 40
1.0
 41
2.5
 42
0.0625
 43
0.38
 44
0.18
 45
0.0
 46
0.0
 47
0.0
 48
0.0
140
0.18
141
0.09
142
0.0
143
25.3999999999999986
144
1.0
145
0.0
146
1.0
147
0.09
 71
     0
 72
     0
 73
     1
 74
     1
 75
     0
 76
     0
 77
     0
 78
     0
170
     0
171
     2
172
     0
173
     0
174
     0
175
     0
176
     0
177
     0
178
     0
  0
DIMSTYLE
  2
DODATKOWY__ISO_
 70
     0
  3

  4

  5

  6

  7

 40
1.0
 41
2.5
 42
0.0625
 43
0.38
 44
0.18
 45
0.0
 46
0.0
 47
0.0
 48
0.0
140
0.18
141
0.09
142
0.0
143
25.3999999999999986
144
1.0
145
0.0
146
1.0
147
0.09
 71
     0
 72
     0
 73
     1
 74
     1
 75
     0
 76
     0
 77
     0
 78
     0
170
     0
171
     2
172
     0
173
     0
174
     0
175
     0
176
     0
177
     0
178
     0
  0
DIMSTYLE
  2
DUżY__ISO_
 70
     0
  3

  4

  5

  6

  7

 40
1.0
 41
5.0
 42
0.0625
 43
0.38
 44
0.18
 45
0.0
 46
0.0
 47
0.0
 48
0.0
140
0.18
141
0.09
142
0.0
143
25.3999999999999986
144
1.0
145
0.0
146
1.0
147
0.09
 71
     0
 72
     0
 73
     1
 74
     1
 75
     0
 76
     0
 77
     0
 78
     0
170
     0
171
     2
172
     0
173
     0
174
     0
175
     0
176
     0
177
     0
178
     0
  0
DIMSTYLE
  2
ODNIESIENIE__ISO_
 70
     0
  3

  4

  5

  6

  7

 40
1.0
 41
2.5
 42
0.0625
 43
0.38
 44
0.18
 45
0.0
 46
0.0
 47
0.0
 48
0.0
140
0.18
141
0.09
142
0.0
143
25.3999999999999986
144
1.0
145
0.0
146
1.0
147
0.09
 71
     0
 72
     0
 73
     1
 74
     1
 75
     0
 76
     0
 77
     0
 78
     0
170
     0
171
     2
172
     0
173
     0
174
     0
175
     0
176
     0
177
     0
178
     0
  0
DIMSTYLE
  2
VELKé__ISO_
 70
     0
  3

  4

  5

  6

  7

 40
1.0
 41
5.0
 42
0.0625
 43
0.38
 44
0.18
 45
0.0
 46
0.0
 47
0.0
 48
0.0
140
0.18
141
0.09
142
0.0
143
25.3999999999999986
144
1.0
145
0.0
146
1.0
147
0.09
 71
     0
 72
     0
 73
     1
 74
     1
 75
     0
 76
     0
 77
     0
 78
     0
170
     0
171
     2
172
     0
173
     0
174
     0
175
     0
176
     0
177
     0
178
     0
  0
DIMSTYLE
  2
ZáKLADNY__ISO_
 70
     0
  3

  4

  5

  6

  7

 40
1.0
 41
2.5
 42
0.0625
 43
0.38
 44
0.18
 45
0.0
 46
0.0
 47
0.0
 48
0.0
140
0.18
141
0.09
142
0.0
143
25.3999999999999986
144
1.0
145
0.0
146
1.0
147
0.09
 71
     0
 72
     0
 73
     1
 74
     1
 75
     0
 76
     0
 77
     0
 78
     0
170
     0
171
     2
172
     0
173
     0
174
     0
175
     0
176
     0
177
     0
178
     0
  0
ENDTAB
  0
ENDSEC
  0
SECTION
  2
BLOCKS
  0
BLOCK
  8
0
  2
$MODEL_SPACE
 70
     0
 10
0.0
 20
0.0
 30
0.0
  3
$MODEL_SPACE
  1

  0
ENDBLK
  5
72
  8
0
  0
BLOCK
 67
     1
  8
0
  2
$PAPER_SPACE
 70
     0
 10
0.0
 20
0.0
 30
0.0
  3
$PAPER_SPACE
  1

  0
ENDBLK
  5
6E
 67
     1
  8
0
  0
BLOCK
  8
0
  2
FILLED-1
 70
     0
 10
0.0
 20
0.0
 30
0.0
  3
FILLED-1
  1

  0
LINE
  5
11D
  8
0
 62
     0
 10
-1.0
 20
0.0
 30
0.0
 11
0.0
 21
0.0
 31
0.0
  0
POLYLINE
  5
11F
  8
0
 62
     0
 66
     1
 10
0.0
 20
0.0
 30
0.0
 70
   128
  0
VERTEX
  5
120
  8
0
 62
     0
 10
-1.0
 20
-0.1
 30
0.0
  0
VERTEX
  5
121
  8
0
 62
     0
 10
0.0
 20
0.0
 30
0.0
  0
VERTEX
  5
123
  8
0
 62
     0
 10
-1.0
 20
0.1
 30
0.0
  0
VERTEX
  5
124
  8
0
 62
     0
 10
-1.0
 20
-0.1
 30
0.0
  0
SEQEND
  5
122
  8
0
 62
     0
  0
SOLID
  5
125
  8
0
 62
     0
 10
-1.0
 20
-0.1
 30
0.0
 11
0.0
 21
0.0
 31
0.0
 12
-1.0
 22
0.1
 32
0.0
 13
-1.0
 23
-0.1
 33
0.0
  0
LINE
  5
126
  8
0
 62
     0
 10
-1.0
 20
-0.1
 30
0.0
 11
0.0
 21
0.0
 31
0.0
  0
LINE
  5
127
  8
0
 62
     0
 10
0.0
 20
0.0
 30
0.0
 11
-1.0
 21
0.1
 31
0.0
  0
LINE
  5
128
  8
0
 62
     0
 10
-1.0
 20
0.1
 30
0.0
 11
-1.0
 21
-0.1
 31
0.0
  0
ENDBLK
  5
11C
  8
0
  0
BLOCK
  8
0
  2
DATUMFILLED45
 70
     0
 10
0.0
 20
0.0
 30
0.0
  3
DATUMFILLED45
  1

  0
POLYLINE
  5
12D
  8
0
 62
     0
 66
     1
 10
0.0
 20
0.0
 30
0.0
 70
   128
  0
VERTEX
  5
12E
  8
0
 62
     0
 10
0.0
 20
1.0
 30
0.0
  0
VERTEX
  5
12F
  8
0
 62
     0
 10
0.0
 20
-1.0
 30
0.0
  0
VERTEX
  5
131
  8
0
 62
     0
 10
-1.0
 20
0.0
 30
0.0
  0
VERTEX
  5
132
  8
0
 62
     0
 10
0.0
 20
1.0
 30
0.0
  0
SEQEND
  5
130
  8
0
 62
     0
  0
SOLID
  5
133
  8
0
 62
     0
 10
0.0
 20
1.0
 30
0.0
 11
0.0
 21
-1.0
 31
0.0
 12
-1.0
 22
0.0
 32
0.0
 13
0.0
 23
1.0
 33
0.0
  0
ENDBLK
  5
12C
  8
0
  0
BLOCK
  8
0
  2
*D3
 70
     1
 10
0.0
 20
0.0
 30
0.0
  3
*D3
  1

  0
LINE
  5
259
  8
WYMIAR__ISO_
 10
166.0372897881819938
 20
195.790302604382191
 30
0.0
 11
166.0372897881819938
 21
154.3186834690073965
 31
0.0
  0
LINE
  5
25A
  8
WYMIAR__ISO_
 10
194.0372897881819938
 20
195.790302604382191
 30
0.0
 11
194.0372897881819938
 21
154.3186834690073965
 31
0.0
  0
LINE
  5
25B
  8
WYMIAR__ISO_
 10
168.5372897881819938
 20
157.4936834690074079
 30
0.0
 11
191.5372897881819938
 21
157.4936834690074079
 31
0.0
  0
SOLID
  5
25C
  8
WYMIAR__ISO_
 10
168.5372897881819938
 20
157.9103501356740935
 30
0.0
 11
168.5372897881819938
 21
157.0770168023408075
 31
0.0
 12
166.0372897881819938
 22
157.4936834690074079
 32
0.0
 13
166.0372897881819938
 23
157.4936834690074079
 33
0.0
  0
SOLID
  5
25D
  8
WYMIAR__ISO_
 10
191.5372897881819938
 20
157.9103501356740935
 30
0.0
 11
191.5372897881819938
 21
157.0770168023408075
 31
0.0
 12
194.0372897881819938
 22
157.4936834690074079
 32
0.0
 13
194.0372897881819938
 23
157.4936834690074079
 33
0.0
  0
INSERT
  5
25E
  8
0
  2
*U12
 10
0.0
 20
0.0
 30
0.0
  0
POINT
  5
25F
  8
DEFPOINTS
 62
     0
 10
166.0372897881819938
 20
195.790302604382191
 30
0.0
  0
POINT
  5
260
  8
DEFPOINTS
 62
     0
 10
194.0372897881819938
 20
195.790302604382191
 30
0.0
  0
POINT
  5
261
  8
DEFPOINTS
 62
     0
 10
194.0372897881819938
 20
157.4936834690074079
 30
0.0
  0
ENDBLK
  5
177
  8
0
  0
BLOCK
  8
0
  2
*D4
 70
     1
 10
0.0
 20
0.0
 30
0.0
  3
*D4
  1

  0
LINE
  5
351
  8
WYMIAR__ISO_
 10
166.0372897881821075
 20
118.0569910391471069
 30
0.0
 11
152.8622897881820109
 21
118.0569910391471069
 31
0.0
  0
LINE
  5
352
  8
WYMIAR__ISO_
 10
166.0372897881821075
 20
125.5569910391479027
 30
0.0
 11
152.8622897881820109
 21
125.5569910391479027
 31
0.0
  0
LINE
  5
353
  8
WYMIAR__ISO_
 10
156.0372897881819938
 20
120.5569910391471069
 30
0.0
 11
156.0372897881819938
 21
123.0569910391479027
 31
0.0
  0
SOLID
  5
354
  8
WYMIAR__ISO_
 10
155.6206231215153082
 20
120.5569910391471069
 30
0.0
 11
156.4539564548485941
 21
120.5569910391471069
 31
0.0
 12
156.0372897881819938
 22
118.0569910391471069
 32
0.0
 13
156.0372897881819938
 23
118.0569910391471069
 33
0.0
  0
SOLID
  5
355
  8
WYMIAR__ISO_
 10
155.6206231215153082
 20
123.0569910391479027
 30
0.0
 11
156.4539564548485941
 21
123.0569910391479027
 31
0.0
 12
156.0372897881819938
 22
125.5569910391479027
 32
0.0
 13
156.0372897881819938
 23
125.5569910391479027
 33
0.0
  0
INSERT
  5
356
  8
0
  2
*U13
 10
0.0
 20
0.0
 30
0.0
  0
POINT
  5
357
  8
DEFPOINTS
 62
     0
 10
166.0372897881821075
 20
118.0569910391471069
 30
0.0
  0
POINT
  5
358
  8
DEFPOINTS
 62
     0
 10
166.0372897881821075
 20
125.5569910391479027
 30
0.0
  0
POINT
  5
359
  8
DEFPOINTS
 62
     0
 10
156.0372897881819938
 20
125.5569910391479027
 30
0.0
  0
ENDBLK
  5
265
  8
0
  0
BLOCK
  8
0
  2
*D5
 70
     1
 10
0.0
 20
0.0
 30
0.0
  3
*D5
  1

  0
LINE
  5
43E
  8
WYMIAR__ISO_
 10
181.0372897881819938
 20
111.3569910391470046
 30
0.0
 11
181.0372897881819938
 21
98.4527520778773777
 31
0.0
  0
LINE
  5
43F
  8
WYMIAR__ISO_
 10
166.0372897881819938
 20
118.0569910391469932
 30
0.0
 11
166.0372897881819938
 21
98.4527520778773777
 31
0.0
  0
LINE
  5
440
  8
WYMIAR__ISO_
 10
178.5372897881819938
 20
101.6277520778773038
 30
0.0
 11
168.5372897881819938
 21
101.6277520778773038
 31
0.0
  0
SOLID
  5
441
  8
WYMIAR__ISO_
 10
178.5372897881819938
 20
102.0444187445440036
 30
0.0
 11
178.5372897881819938
 21
101.2110854112107035
 31
0.0
 12
181.0372897881819938
 22
101.6277520778773038
 32
0.0
 13
181.0372897881819938
 23
101.6277520778773038
 33
0.0
  0
SOLID
  5
442
  8
WYMIAR__ISO_
 10
168.5372897881819938
 20
102.0444187445440036
 30
0.0
 11
168.5372897881819938
 21
101.2110854112107035
 31
0.0
 12
166.0372897881819938
 22
101.6277520778773038
 32
0.0
 13
166.0372897881819938
 23
101.6277520778773038
 33
0.0
  0
INSERT
  5
443
  8
0
  2
*U14
 10
0.0
 20
0.0
 30
0.0
  0
POINT
  5
444
  8
DEFPOINTS
 62
     0
 10
181.0372897881819938
 20
111.3569910391470046
 30
0.0
  0
POINT
  5
445
  8
DEFPOINTS
 62
     0
 10
166.0372897881819938
 20
118.0569910391469932
 30
0.0
  0
POINT
  5
446
  8
DEFPOINTS
 62
     0
 10
166.0372897881819938
 20
101.6277520778773038
 30
0.0
  0
ENDBLK
  5
35D
  8
0
  0
BLOCK
  8
0
  2
*D6
 70
     1
 10
0.0
 20
0.0
 30
0.0
  3
*D6
  1

  0
LINE
  5
52B
  8
WYMIAR__ISO_
 10
243.5995529718925923
 20
184.9903026043822081
 30
0.0
 11
243.5995529718925923
 21
153.9152086456091979
 31
0.0
  0
LINE
  5
52C
  8
WYMIAR__ISO_
 10
229.3995529718881983
 20
182.290302604382191
 30
0.0
 11
229.3995529718881983
 21
153.9152086456091979
 31
0.0
  0
LINE
  5
52D
  8
WYMIAR__ISO_
 10
241.0995529718925923
 20
157.0902086456092945
 30
0.0
 11
231.8995529718881983
 21
157.0902086456092945
 31
0.0
  0
SOLID
  5
52E
  8
WYMIAR__ISO_
 10
241.0995529718925923
 20
157.5068753122758949
 30
0.0
 11
241.0995529718925923
 21
156.6735419789426089
 31
0.0
 12
243.5995529718925923
 22
157.0902086456092945
 32
0.0
 13
243.5995529718925923
 23
157.0902086456092945
 33
0.0
  0
SOLID
  5
52F
  8
WYMIAR__ISO_
 10
231.8995529718881983
 20
157.5068753122758949
 30
0.0
 11
231.8995529718881983
 21
156.6735419789426089
 31
0.0
 12
229.3995529718881983
 22
157.0902086456092945
 32
0.0
 13
229.3995529718881983
 23
157.0902086456092945
 33
0.0
  0
INSERT
  5
530
  8
0
  2
*U15
 10
0.0
 20
0.0
 30
0.0
  0
POINT
  5
531
  8
DEFPOINTS
 62
     0
 10
243.5995529718925923
 20
184.9903026043822081
 30
0.0
  0
POINT
  5
532
  8
DEFPOINTS
 62
     0
 10
229.3995529718881983
 20
182.290302604382191
 30
0.0
  0
POINT
  5
533
  8
DEFPOINTS
 62
     0
 10
229.3995529718881983
 20
157.0902086456092945
 30
0.0
  0
ENDBLK
  5
44A
  8
0
  0
BLOCK
  8
0
  2
*D7
 70
     1
 10
0.0
 20
0.0
 30
0.0
  3
*D7
  1

  0
LINE
  5
62A
  8
WYMIAR__ISO_
 10
169.3872897881819881
 20
189.040302604382191
 30
0.0
 11
169.3872897881819881
 21
166.6203964270501956
 31
0.0
  0
LINE
  5
62B
  8
WYMIAR__ISO_
 10
177.6872897881819995
 20
189.040302604382191
 30
0.0
 11
177.6872897881819995
 21
166.6203964270501956
 31
0.0
  0
LINE
  5
62C
  8
WYMIAR__ISO_
 10
171.8872897881819881
 20
169.795396427050207
 30
0.0
 11
175.1872897881819995
 21
169.795396427050207
 31
0.0
  0
LINE
  5
62D
  8
WYMIAR__ISO_
 10
177.6872897881819995
 20
169.795396427050207
 30
0.0
 11
191.8913717028266888
 21
169.795396427050207
 31
0.0
  0
SOLID
  5
62E
  8
WYMIAR__ISO_
 10
171.8872897881819881
 20
170.2120630937168926
 30
0.0
 11
171.8872897881819881
 21
169.3787297603836066
 31
0.0
 12
169.3872897881819881
 22
169.795396427050207
 32
0.0
 13
169.3872897881819881
 23
169.795396427050207
 33
0.0
  0
SOLID
  5
62F
  8
WYMIAR__ISO_
 10
175.1872897881819995
 20
170.2120630937168926
 30
0.0
 11
175.1872897881819995
 21
169.3787297603836066
 31
0.0
 12
177.6872897881819995
 22
169.795396427050207
 32
0.0
 13
177.6872897881819995
 23
169.795396427050207
 33
0.0
  0
INSERT
  5
630
  8
0
  2
*U16
 10
0.0
 20
0.0
 30
0.0
  0
POINT
  5
631
  8
DEFPOINTS
 62
     0
 10
169.3872897881819881
 20
189.040302604382191
 30
0.0
  0
POINT
  5
632
  8
DEFPOINTS
 62
     0
 10
177.6872897881819995
 20
189.040302604382191
 30
0.0
  0
POINT
  5
633
  8
DEFPOINTS
 62
     0
 10
177.6872897881819995
 20
169.795396427050207
 30
0.0
  0
ENDBLK
  5
53B
  8
0
  0
BLOCK
  8
0
  2
UWAGA_DOTYCZąCA_GWINTU_ZEW
 70
     0
 10
0.0
 20
0.0
 30
0.0
  3
UWAGA_DOTYCZąCA_GWINTU_ZEW
  1

  0
INSERT
  5
637
  8
0
  2
*U17
 10
0.0
 20
0.0
 30
0.0
  0
LINE
  5
638
  8
SYMBOL__ISO_
 10
194.7928347640097968
 20
95.7592086277543615
 30
0.0
 11
192.5363255610012061
 21
94.6830273155502482
 31
0.0
  0
POLYLINE
  5
639
  8
SYMBOL__ISO_
 66
     1
 10
0.0
 20
0.0
 30
0.0
 70
   128
  0
VERTEX
  5
63A
  8
SYMBOL__ISO_
 10
194.5775985717772869
 20
96.210508346557603
 30
0.0
  0
VERTEX
  5
63B
  8
SYMBOL__ISO_
 10
192.5363349914551065
 20
94.6830272674560547
 30
0.0
  0
VERTEX
  5
63D
  8
SYMBOL__ISO_
 10
195.0080680847167969
 20
95.3079032897949219
 30
0.0
  0
VERTEX
  5
63E
  8
SYMBOL__ISO_
 10
194.5775985717772869
 20
96.210508346557603
 30
0.0
  0
SEQEND
  5
63C
  8
SYMBOL__ISO_
  0
SOLID
  5
63F
  8
SYMBOL__ISO_
 10
194.5775985717772869
 20
96.210508346557603
 30
0.0
 11
192.5363349914551065
 21
94.6830272674560547
 31
0.0
 12
195.0080680847167969
 22
95.3079032897949219
 32
0.0
 13
194.5775985717772869
 23
96.210508346557603
 33
0.0
  0
LINE
  5
640
  8
SYMBOL__ISO_
 10
194.5775985015690139
 20
96.2105104683561052
 30
0.0
 11
192.5363255610012061
 21
94.6830273155502482
 31
0.0
  0
LINE
  5
641
  8
SYMBOL__ISO_
 10
192.5363255610012061
 20
94.6830273155502482
 30
0.0
 11
195.0080710264506081
 21
95.3079067871526462
 31
0.0
  0
LINE
  5
642
  8
SYMBOL__ISO_
 10
195.0080710264506081
 20
95.3079067871526462
 30
0.0
 11
194.5775985015690139
 21
96.2105104683561052
 31
0.0
  0
LINE
  5
643
  8
SYMBOL__ISO_
 10
197.5006458076200886
 20
97.0506262023993003
 30
0.0
 11
199.757155010628793
 21
98.1268075146034136
 31
0.0
  0
POLYLINE
  5
644
  8
SYMBOL__ISO_
 66
     1
 10
0.0
 20
0.0
 30
0.0
 70
   128
  0
VERTEX
  5
645
  8
SYMBOL__ISO_
 10
197.7158737182616903
 20
96.5993213653564453
 30
0.0
  0
VERTEX
  5
646
  8
SYMBOL__ISO_
 10
199.7571563720703125
 20
98.1268119812011719
 30
0.0
  0
VERTEX
  5
648
  8
SYMBOL__ISO_
 10
197.285404205322294
 20
97.5019264221191406
 30
0.0
  0
VERTEX
  5
649
  8
SYMBOL__ISO_
 10
197.7158737182616903
 20
96.5993213653564453
 30
0.0
  0
SEQEND
  5
647
  8
SYMBOL__ISO_
  0
SOLID
  5
64A
  8
SYMBOL__ISO_
 10
197.7158737182616903
 20
96.5993213653564453
 30
0.0
 11
199.7571563720703125
 21
98.1268119812011719
 31
0.0
 12
197.285404205322294
 22
97.5019264221191406
 32
0.0
 13
197.7158737182616903
 23
96.5993213653564453
 33
0.0
  0
LINE
  5
64B
  8
SYMBOL__ISO_
 10
197.7158820700610136
 20
96.599324361797585
 30
0.0
 11
199.757155010628793
 21
98.1268075146034136
 31
0.0
  0
LINE
  5
64C
  8
SYMBOL__ISO_
 10
199.757155010628793
 20
98.1268075146034136
 30
0.0
 11
197.2854095451793057
 21
97.5019280430010156
 31
0.0
  0
LINE
  5
64D
  8
SYMBOL__ISO_
 10
197.2854095451793057
 20
97.5019280430010156
 30
0.0
 11
197.7158820700610136
 21
96.599324361797585
 31
0.0
  0
LINE
  5
64E
  8
SYMBOL__ISO_
 10
194.7928347640097968
 20
95.7592086277543615
 30
0.0
 11
197.5006458076200886
 21
97.0506262023993003
 31
0.0
  0
LINE
  5
64F
  8
SYMBOL__ISO_
 10
191.1477045129958015
 20
116.178881138672395
 30
0.0
 11
201.1239052771279887
 21
95.261040826782434
 31
0.0
  0
LINE
  5
650
  8
SYMBOL__ISO_
 10
183.9268750633681861
 20
112.7351009396193007
 30
0.0
 11
193.9030758275004018
 21
91.8172606277292971
 31
0.0
  0
LINE
  5
651
  8
SYMBOL__ISO_
 10
228.3540397346280884
 20
111.7653217675876931
 30
0.0
 11
199.757155010628793
 21
98.1268075146034136
 31
0.0
  0
ENDBLK
  5
636
  8
0
  0
BLOCK
  8
0
  2
*D9
 70
     1
 10
0.0
 20
0.0
 30
0.0
  3
*D9
  1

  0
LINE
  5
757
  8
WYMIAR__ISO_
 10
243.599552971892706
 20
184.9903026043822081
 30
0.0
 11
256.7745529718926036
 21
184.9903026043822081
 31
0.0
  0
LINE
  5
758
  8
WYMIAR__ISO_
 10
243.599552971892706
 20
193.0903026043822877
 30
0.0
 11
256.7745529718926036
 21
193.0903026043822877
 31
0.0
  0
LINE
  5
759
  8
WYMIAR__ISO_
 10
253.599552971892706
 20
190.5903026043822877
 30
0.0
 11
253.599552971892706
 21
187.4903026043822081
 31
0.0
  0
LINE
  5
75A
  8
WYMIAR__ISO_
 10
253.599552971892706
 20
184.9903026043822081
 30
0.0
 11
253.599552971892706
 21
174.5496359377154931
 31
0.0
  0
SOLID
  5
75B
  8
WYMIAR__ISO_
 10
253.1828863052259919
 20
190.5903026043822877
 30
0.0
 11
254.0162196385593063
 21
190.5903026043822877
 31
0.0
 12
253.5995529718925923
 22
193.0903026043822877
 32
0.0
 13
253.5995529718925923
 23
193.0903026043822877
 33
0.0
  0
SOLID
  5
75C
  8
WYMIAR__ISO_
 10
253.1828863052259919
 20
187.4903026043822081
 30
0.0
 11
254.0162196385593063
 21
187.4903026043822081
 31
0.0
 12
253.599552971892706
 22
184.9903026043822081
 32
0.0
 13
253.599552971892706
 23
184.9903026043822081
 33
0.0
  0
INSERT
  5
75D
  8
0
  2
*U18
 10
0.0
 20
0.0
 30
0.0
  0
POINT
  5
75E
  8
DEFPOINTS
 62
     0
 10
243.599552971892706
 20
184.9903026043822081
 30
0.0
  0
POINT
  5
75F
  8
DEFPOINTS
 62
     0
 10
243.599552971892706
 20
193.0903026043822877
 30
0.0
  0
POINT
  5
760
  8
DEFPOINTS
 62
     0
 10
253.5995529718925923
 20
193.0903026043822877
 30
0.0
  0
ENDBLK
  5
656
  8
0
  0
BLOCK
  8
0
  2
*D10
 70
     1
 10
0.0
 20
0.0
 30
0.0
  3
*D10
  1

  0
LINE
  5
84C
  8
WYMIAR__ISO_
 10
229.399552971888312
 20
182.290302604382191
 30
0.0
 11
216.2245529718881869
 21
182.290302604382191
 31
0.0
  0
LINE
  5
84D
  8
WYMIAR__ISO_
 10
229.399552971888312
 20
195.7903026043823047
 30
0.0
 11
216.2245529718881869
 21
195.7903026043823047
 31
0.0
  0
LINE
  5
84E
  8
WYMIAR__ISO_
 10
219.3995529718881983
 20
184.790302604382191
 30
0.0
 11
219.3995529718881983
 21
193.2903026043823047
 31
0.0
  0
SOLID
  5
84F
  8
WYMIAR__ISO_
 10
218.9828863052215127
 20
184.790302604382191
 30
0.0
 11
219.8162196385549123
 21
184.790302604382191
 31
0.0
 12
219.3995529718881983
 22
182.290302604382191
 32
0.0
 13
219.3995529718881983
 23
182.290302604382191
 33
0.0
  0
SOLID
  5
850
  8
WYMIAR__ISO_
 10
218.9828863052215127
 20
193.2903026043823047
 30
0.0
 11
219.8162196385547986
 21
193.2903026043823047
 31
0.0
 12
219.3995529718881983
 22
195.7903026043823047
 32
0.0
 13
219.3995529718881983
 23
195.7903026043823047
 33
0.0
  0
INSERT
  5
851
  8
0
  2
*U19
 10
0.0
 20
0.0
 30
0.0
  0
POINT
  5
852
  8
DEFPOINTS
 62
     0
 10
229.399552971888312
 20
182.290302604382191
 30
0.0
  0
POINT
  5
853
  8
DEFPOINTS
 62
     0
 10
229.399552971888312
 20
195.7903026043823047
 30
0.0
  0
POINT
  5
854
  8
DEFPOINTS
 62
     0
 10
219.3995529718881983
 20
195.7903026043823047
 30
0.0
  0
ENDBLK
  5
764
  8
0
  0
BLOCK
  8
0
  2
*D11
 70
     1
 10
0.0
 20
0.0
 30
0.0
  3
*D11
  1

  0
LINE
  5
953
  8
WYMIAR__ISO_
 10
229.3995529718881983
 20
182.290302604382191
 30
0.0
 11
229.3995529718881983
 21
166.6203964270501956
 31
0.0
  0
LINE
  5
954
  8
WYMIAR__ISO_
 10
232.8995529718881983
 20
193.0903026043822024
 30
0.0
 11
232.8995529718881983
 21
166.6203964270501956
 31
0.0
  0
LINE
  5
955
  8
WYMIAR__ISO_
 10
235.3995529718881983
 20
169.795396427050207
 30
0.0
 11
237.8995529718881983
 21
169.795396427050207
 31
0.0
  0
LINE
  5
956
  8
WYMIAR__ISO_
 10
226.8995529718881983
 20
169.795396427050207
 30
0.0
 11
215.2922196385547977
 21
169.795396427050207
 31
0.0
  0
LINE
  5
957
  8
WYMIAR__ISO_
 10
232.8995529718881983
 20
169.795396427050207
 30
0.0
 11
229.3995529718881983
 21
169.795396427050207
 31
0.0
  0
SOLID
  5
958
  8
WYMIAR__ISO_
 10
235.3995529718881983
 20
170.2120630937168926
 30
0.0
 11
235.3995529718881983
 21
169.3787297603836066
 31
0.0
 12
232.8995529718881983
 22
169.795396427050207
 32
0.0
 13
232.8995529718881983
 23
169.795396427050207
 33
0.0
  0
SOLID
  5
959
  8
WYMIAR__ISO_
 10
226.8995529718881983
 20
170.2120630937168926
 30
0.0
 11
226.8995529718881983
 21
169.3787297603836066
 31
0.0
 12
229.3995529718881983
 22
169.795396427050207
 32
0.0
 13
229.3995529718881983
 23
169.795396427050207
 33
0.0
  0
INSERT
  5
95A
  8
0
  2
*U20
 10
0.0
 20
0.0
 30
0.0
  0
POINT
  5
95B
  8
DEFPOINTS
 62
     0
 10
229.3995529718881983
 20
182.290302604382191
 30
0.0
  0
POINT
  5
95C
  8
DEFPOINTS
 62
     0
 10
232.8995529718881983
 20
193.0903026043822024
 30
0.0
  0
POINT
  5
95D
  8
DEFPOINTS
 62
     0
 10
232.8995529718881983
 20
169.795396427050207
 30
0.0
  0
ENDBLK
  5
858
  8
0
  0
BLOCK
  8
0
  2
*U12
 70
     1
 10
0.0
 20
0.0
 30
0.0
  3
*U12
  1

  0
TEXT
  5
9BA
  8
WYMIAR__ISO_
 10
177.1206231215153082
 20
158.2556834690074083
 30
0.0
 40
3.5
  1
28
  7
TEKST_NOTATKI__ISO_
  0
ENDBLK
  5
9BC
  8
0
  0
BLOCK
  8
0
  2
*U13
 70
     1
 10
0.0
 20
0.0
 30
0.0
  3
*U13
  1

  0
TEXT
  5
9BE
  8
WYMIAR__ISO_
 10
154.6919564548487074
 20
118.0153243724807055
 30
0.0
 40
3.5
  1
7,5
 50
90.0
  7
TEKST_NOTATKI__ISO_
  0
ENDBLK
  5
9C0
  8
0
  0
BLOCK
  8
0
  2
*U14
 70
     1
 10
0.0
 20
0.0
 30
0.0
  3
*U14
  1

  0
TEXT
  5
9C2
  8
WYMIAR__ISO_
 10
171.2039564548487078
 20
102.3897520778773043
 30
0.0
 40
3.5
  1
15
  7
TEKST_NOTATKI__ISO_
  0
ENDBLK
  5
9C4
  8
0
  0
BLOCK
  8
0
  2
*U15
 70
     1
 10
0.0
 20
0.0
 30
0.0
  3
*U15
  1

  0
TEXT
  5
9C6
  8
WYMIAR__ISO_
 10
231.5412196385570098
 20
158.4355419789426094
 30
0.0
 40
3.5
  1
14,2
  7
TEKST_NOTATKI__ISO_
  0
ENDBLK
  5
9C8
  8
0
  0
BLOCK
  8
0
  2
*U16
 70
     1
 10
0.0
 20
0.0
 30
0.0
  3
*U16
  1

  0
TEXT
  5
9CB
  8
WYMIAR__ISO_
 10
180.7511315332768902
 20
171.3142177240430044
 30
0.0
 40
3.5
  1
\U+00D88,3
  7
MtXpl_Roboto
  0
ENDBLK
  5
9CD
  8
0
  0
BLOCK
  8
0
  2
*U17
 70
     1
 10
0.0
 20
0.0
 30
0.0
  3
*U17
  1

  0
TEXT
  5
9CF
  8
SYMBOL__ISO_
 10
200.8674621248163135
 20
100.3447872863777945
 30
0.0
 40
3.4999999403953548
  1
M8x1.25 - 6H
 50
25.4975514933377987
  7
TEKST_NOTATKI__ISO_
  0
ENDBLK
  5
9D1
  8
0
  0
BLOCK
  8
0
  2
*U18
 70
     1
 10
0.0
 20
0.0
 30
0.0
  3
*U18
  1

  0
TEXT
  5
9D3
  8
WYMIAR__ISO_
 10
252.2542196385593058
 20
175.3116359377154083
 30
0.0
 40
3.5
  1
8,1
 50
90.0
  7
TEKST_NOTATKI__ISO_
  0
ENDBLK
  5
9D5
  8
0
  0
BLOCK
  8
0
  2
*U19
 70
     1
 10
0.0
 20
0.0
 30
0.0
  3
*U19
  1

  0
TEXT
  5
9D7
  8
WYMIAR__ISO_
 10
218.0542196385549119
 20
184.0819692710487914
 30
0.0
 40
3.5
  1
13,5
 50
90.0
  7
TEKST_NOTATKI__ISO_
  0
ENDBLK
  5
9D9
  8
0
  0
BLOCK
  8
0
  2
*U20
 70
     1
 10
0.0
 20
0.0
 30
0.0
  3
*U20
  1

  0
TEXT
  5
9DB
  8
WYMIAR__ISO_
 10
216.0542196385549119
 20
171.1407297603836071
 30
0.0
 40
3.5
  1
3,5
  7
TEKST_NOTATKI__ISO_
  0
ENDBLK
  5
9DD
  8
0
  0
ENDSEC
  0
SECTION
  2
ENTITIES
  0
POLYLINE
  5
137
  8
UKRYTE__ISO_
 10
185.1606560616916966
 20
191.0682342619607539
 30
0.0
 66
     1
 70
     8
  0
VERTEX
  8
UKRYTE__ISO_
  5
9DE
 10
185.161
 20
191.068
 30
0.00000
  70
    32
  0
VERTEX
  8
UKRYTE__ISO_
  5
9DF
 10
185.071
 20
191.169
 30
0.00000
  70
    32
  0
VERTEX
  8
UKRYTE__ISO_
  5
9E0
 10
184.978
 20
191.266
 30
0.00000
  70
    32
  0
VERTEX
  8
UKRYTE__ISO_
  5
9E1
 10
184.880
 20
191.361
 30
0.00000
  70
    32
  0
VERTEX
  8
UKRYTE__ISO_
  5
9E2
 10
184.778
 20
191.451
 30
0.00000
  70
    32
  0
VERTEX
  8
UKRYTE__ISO_
  5
9E3
 10
184.672
 20
191.538
 30
0.00000
  70
    32
  0
VERTEX
  8
UKRYTE__ISO_
  5
9E4
 10
184.563
 20
191.621
 30
0.00000
  70
    32
  0
VERTEX
  8
UKRYTE__ISO_
  5
9E5
 10
184.450
 20
191.701
 30
0.00000
  70
    32
  0
VERTEX
  8
UKRYTE__ISO_
  5
9E6
 10
184.334
 20
191.776
 30
0.00000
  70
    32
  0
VERTEX
  8
UKRYTE__ISO_
  5
9E7
 10
184.215
 20
191.847
 30
0.00000
  70
    32
  0
VERTEX
  8
UKRYTE__ISO_
  5
9E8
 10
184.093
 20
191.914
 30
0.00000
  70
    32
  0
VERTEX
  8
UKRYTE__ISO_
  5
9E9
 10
183.968
 20
191.977
 30
0.00000
  70
    32
  0
VERTEX
  8
UKRYTE__ISO_
  5
9EA
 10
183.840
 20
192.035
 30
0.00000
  70
    32
  0
VERTEX
  8
UKRYTE__ISO_
  5
9EB
 10
183.710
 20
192.089
 30
0.00000
  70
    32
  0
VERTEX
  8
UKRYTE__ISO_
  5
9EC
 10
183.578
 20
192.138
 30
0.00000
  70
    32
  0
VERTEX
  8
UKRYTE__ISO_
  5
9ED
 10
183.444
 20
192.182
 30
0.00000
  70
    32
  0
VERTEX
  8
UKRYTE__ISO_
  5
9EE
 10
183.308
 20
192.222
 30
0.00000
  70
    32
  0
VERTEX
  8
UKRYTE__ISO_
  5
9EF
 10
183.170
 20
192.257
 30
0.00000
  70
    32
  0
VERTEX
  8
UKRYTE__ISO_
  5
9F0
 10
183.031
 20
192.287
 30
0.00000
  70
    32
  0
VERTEX
  8
UKRYTE__ISO_
  5
9F1
 10
182.891
 20
192.312
 30
0.00000
  70
    32
  0
VERTEX
  8
UKRYTE__ISO_
  5
9F2
 10
182.749
 20
192.332
 30
0.00000
  70
    32
  0
VERTEX
  8
UKRYTE__ISO_
  5
9F3
 10
182.607
 20
192.348
 30
0.00000
  70
    32
  0
VERTEX
  8
UKRYTE__ISO_
  5
9F4
 10
182.465
 20
192.358
 30
0.00000
  70
    32
  0
VERTEX
  8
UKRYTE__ISO_
  5
9F5
 10
182.322
 20
192.363
 30
0.00000
  70
    32
  0
VERTEX
  8
UKRYTE__ISO_
  5
9F6
 10
182.179
 20
192.363
 30
0.00000
  70
    32
  0
VERTEX
  8
UKRYTE__ISO_
  5
9F7
 10
182.036
 20
192.359
 30
0.00000
  70
    32
  0
VERTEX
  8
UKRYTE__ISO_
  5
9F8
 10
181.894
 20
192.349
 30
0.00000
  70
    32
  0
VERTEX
  8
UKRYTE__ISO_
  5
9F9
 10
181.752
 20
192.334
 30
0.00000
  70
    32
  0
VERTEX
  8
UKRYTE__ISO_
  5
9FA
 10
181.610
 20
192.314
 30
0.00000
  70
    32
  0
VERTEX
  8
UKRYTE__ISO_
  5
9FB
 10
181.470
 20
192.290
 30
0.00000
  70
    32
  0
VERTEX
  8
UKRYTE__ISO_
  5
9FC
 10
181.331
 20
192.260
 30
0.00000
  70
    32
  0
VERTEX
  8
UKRYTE__ISO_
  5
9FD
 10
181.193
 20
192.226
 30
0.00000
  70
    32
  0
VERTEX
  8
UKRYTE__ISO_
  5
9FE
 10
181.057
 20
192.186
 30
0.00000
  70
    32
  0
VERTEX
  8
UKRYTE__ISO_
  5
9FF
 10
180.922
 20
192.143
 30
0.00000
  70
    32
  0
VERTEX
  8
UKRYTE__ISO_
  5
A00
 10
180.790
 20
192.094
 30
0.00000
  70
    32
  0
VERTEX
  8
UKRYTE__ISO_
  5
A01
 10
180.660
 20
192.041
 30
0.00000
  70
    32
  0
VERTEX
  8
UKRYTE__ISO_
  5
A02
 10
180.532
 20
191.983
 30
0.00000
  70
    32
  0
VERTEX
  8
UKRYTE__ISO_
  5
A03
 10
180.406
 20
191.921
 30
0.00000
  70
    32
  0
VERTEX
  8
UKRYTE__ISO_
  5
A04
 10
180.284
 20
191.854
 30
0.00000
  70
    32
  0
VERTEX
  8
UKRYTE__ISO_
  5
A05
 10
180.164
 20
191.783
 30
0.00000
  70
    32
  0
VERTEX
  8
UKRYTE__ISO_
  5
A06
 10
180.048
 20
191.708
 30
0.00000
  70
    32
  0
VERTEX
  8
UKRYTE__ISO_
  5
A07
 10
179.935
 20
191.629
 30
0.00000
  70
    32
  0
VERTEX
  8
UKRYTE__ISO_
  5
A08
 10
179.825
 20
191.547
 30
0.00000
  70
    32
  0
VERTEX
  8
UKRYTE__ISO_
  5
A09
 10
179.719
 20
191.460
 30
0.00000
  70
    32
  0
VERTEX
  8
UKRYTE__ISO_
  5
A0A
 10
179.617
 20
191.370
 30
0.00000
  70
    32
  0
VERTEX
  8
UKRYTE__ISO_
  5
A0B
 10
179.519
 20
191.276
 30
0.00000
  70
    32
  0
VERTEX
  8
UKRYTE__ISO_
  5
A0C
 10
179.425
 20
191.179
 30
0.00000
  70
    32
  0
VERTEX
  8
UKRYTE__ISO_
  5
A0D
 10
179.335
 20
191.078
 30
0.00000
  70
    32
  0
VERTEX
  8
UKRYTE__ISO_
  5
A0E
 10
179.249
 20
190.975
 30
0.00000
  70
    32
  0
VERTEX
  8
UKRYTE__ISO_
  5
A0F
 10
179.169
 20
190.869
 30
0.00000
  70
    32
  0
VERTEX
  8
UKRYTE__ISO_
  5
A10
 10
179.092
 20
190.759
 30
0.00000
  70
    32
  0
VERTEX
  8
UKRYTE__ISO_
  5
A11
 10
179.021
 20
190.648
 30
0.00000
  70
    32
  0
VERTEX
  8
UKRYTE__ISO_
  5
A12
 10
178.954
 20
190.534
 30
0.00000
  70
    32
  0
VERTEX
  8
UKRYTE__ISO_
  5
A13
 10
178.892
 20
190.417
 30
0.00000
  70
    32
  0
VERTEX
  8
UKRYTE__ISO_
  5
A14
 10
178.835
 20
190.299
 30
0.00000
  70
    32
  0
VERTEX
  8
UKRYTE__ISO_
  5
A15
 10
178.784
 20
190.178
 30
0.00000
  70
    32
  0
VERTEX
  8
UKRYTE__ISO_
  5
A16
 10
178.738
 20
190.056
 30
0.00000
  70
    32
  0
VERTEX
  8
UKRYTE__ISO_
  5
A17
 10
178.697
 20
189.933
 30
0.00000
  70
    32
  0
VERTEX
  8
UKRYTE__ISO_
  5
A18
 10
178.661
 20
189.808
 30
0.00000
  70
    32
  0
VERTEX
  8
UKRYTE__ISO_
  5
A19
 10
178.631
 20
189.682
 30
0.00000
  70
    32
  0
VERTEX
  8
UKRYTE__ISO_
  5
A1A
 10
178.606
 20
189.554
 30
0.00000
  70
    32
  0
VERTEX
  8
UKRYTE__ISO_
  5
A1B
 10
178.586
 20
189.427
 30
0.00000
  70
    32
  0
VERTEX
  8
UKRYTE__ISO_
  5
A1C
 10
178.572
 20
189.298
 30
0.00000
  70
    32
  0
VERTEX
  8
UKRYTE__ISO_
  5
A1D
 10
178.564
 20
189.169
 30
0.00000
  70
    32
  0
VERTEX
  8
UKRYTE__ISO_
  5
A1E
 10
178.561
 20
189.040
 30
0.00000
  70
    32
  0
VERTEX
  8
UKRYTE__ISO_
  5
A1F
 10
178.564
 20
188.911
 30
0.00000
  70
    32
  0
VERTEX
  8
UKRYTE__ISO_
  5
A20
 10
178.572
 20
188.782
 30
0.00000
  70
    32
  0
VERTEX
  8
UKRYTE__ISO_
  5
A21
 10
178.586
 20
188.654
 30
0.00000
  70
    32
  0
VERTEX
  8
UKRYTE__ISO_
  5
A22
 10
178.606
 20
188.526
 30
0.00000
  70
    32
  0
VERTEX
  8
UKRYTE__ISO_
  5
A23
 10
178.631
 20
188.399
 30
0.00000
  70
    32
  0
VERTEX
  8
UKRYTE__ISO_
  5
A24
 10
178.661
 20
188.273
 30
0.00000
  70
    32
  0
VERTEX
  8
UKRYTE__ISO_
  5
A25
 10
178.697
 20
188.148
 30
0.00000
  70
    32
  0
VERTEX
  8
UKRYTE__ISO_
  5
A26
 10
178.738
 20
188.024
 30
0.00000
  70
    32
  0
VERTEX
  8
UKRYTE__ISO_
  5
A27
 10
178.784
 20
187.902
 30
0.00000
  70
    32
  0
VERTEX
  8
UKRYTE__ISO_
  5
A28
 10
178.835
 20
187.782
 30
0.00000
  70
    32
  0
VERTEX
  8
UKRYTE__ISO_
  5
A29
 10
178.892
 20
187.663
 30
0.00000
  70
    32
  0
VERTEX
  8
UKRYTE__ISO_
  5
A2A
 10
178.954
 20
187.547
 30
0.00000
  70
    32
  0
VERTEX
  8
UKRYTE__ISO_
  5
A2B
 10
179.021
 20
187.433
 30
0.00000
  70
    32
  0
VERTEX
  8
UKRYTE__ISO_
  5
A2C
 10
179.092
 20
187.321
 30
0.00000
  70
    32
  0
VERTEX
  8
UKRYTE__ISO_
  5
A2D
 10
179.169
 20
187.212
 30
0.00000
  70
    32
  0
VERTEX
  8
UKRYTE__ISO_
  5
A2E
 10
179.249
 20
187.106
 30
0.00000
  70
    32
  0
VERTEX
  8
UKRYTE__ISO_
  5
A2F
 10
179.335
 20
187.002
 30
0.00000
  70
    32
  0
VERTEX
  8
UKRYTE__ISO_
  5
A30
 10
179.425
 20
186.902
 30
0.00000
  70
    32
  0
VERTEX
  8
UKRYTE__ISO_
  5
A31
 10
179.519
 20
186.805
 30
0.00000
  70
    32
  0
VERTEX
  8
UKRYTE__ISO_
  5
A32
 10
179.617
 20
186.711
 30
0.00000
  70
    32
  0
VERTEX
  8
UKRYTE__ISO_
  5
A33
 10
179.719
 20
186.621
 30
0.00000
  70
    32
  0
VERTEX
  8
UKRYTE__ISO_
  5
A34
 10
179.825
 20
186.534
 30
0.00000
  70
    32
  0
VERTEX
  8
UKRYTE__ISO_
  5
A35
 10
179.935
 20
186.451
 30
0.00000
  70
    32
  0
VERTEX
  8
UKRYTE__ISO_
  5
A36
 10
180.048
 20
186.372
 30
0.00000
  70
    32
  0
VERTEX
  8
UKRYTE__ISO_
  5
A37
 10
180.164
 20
186.297
 30
0.00000
  70
    32
  0
VERTEX
  8
UKRYTE__ISO_
  5
A38
 10
180.284
 20
186.226
 30
0.00000
  70
    32
  0
VERTEX
  8
UKRYTE__ISO_
  5
A39
 10
180.406
 20
186.160
 30
0.00000
  70
    32
  0
VERTEX
  8
UKRYTE__ISO_
  5
A3A
 10
180.532
 20
186.098
 30
0.00000
  70
    32
  0
VERTEX
  8
UKRYTE__ISO_
  5
A3B
 10
180.660
 20
186.040
 30
0.00000
  70
    32
  0
VERTEX
  8
UKRYTE__ISO_
  5
A3C
 10
180.790
 20
185.987
 30
0.00000
  70
    32
  0
VERTEX
  8
UKRYTE__ISO_
  5
A3D
 10
180.922
 20
185.938
 30
0.00000
  70
    32
  0
VERTEX
  8
UKRYTE__ISO_
  5
A3E
 10
181.057
 20
185.894
 30
0.00000
  70
    32
  0
VERTEX
  8
UKRYTE__ISO_
  5
A3F
 10
181.193
 20
185.855
 30
0.00000
  70
    32
  0
VERTEX
  8
UKRYTE__ISO_
  5
A40
 10
181.331
 20
185.821
 30
0.00000
  70
    32
  0
VERTEX
  8
UKRYTE__ISO_
  5
A41
 10
181.470
 20
185.791
 30
0.00000
  70
    32
  0
VERTEX
  8
UKRYTE__ISO_
  5
A42
 10
181.610
 20
185.766
 30
0.00000
  70
    32
  0
VERTEX
  8
UKRYTE__ISO_
  5
A43
 10
181.752
 20
185.747
 30
0.00000
  70
    32
  0
VERTEX
  8
UKRYTE__ISO_
  5
A44
 10
181.894
 20
185.732
 30
0.00000
  70
    32
  0
VERTEX
  8
UKRYTE__ISO_
  5
A45
 10
182.036
 20
185.722
 30
0.00000
  70
    32
  0
VERTEX
  8
UKRYTE__ISO_
  5
A46
 10
182.179
 20
185.717
 30
0.00000
  70
    32
  0
VERTEX
  8
UKRYTE__ISO_
  5
A47
 10
182.322
 20
185.718
 30
0.00000
  70
    32
  0
VERTEX
  8
UKRYTE__ISO_
  5
A48
 10
182.465
 20
185.723
 30
0.00000
  70
    32
  0
VERTEX
  8
UKRYTE__ISO_
  5
A49
 10
182.607
 20
185.733
 30
0.00000
  70
    32
  0
VERTEX
  8
UKRYTE__ISO_
  5
A4A
 10
182.749
 20
185.748
 30
0.00000
  70
    32
  0
VERTEX
  8
UKRYTE__ISO_
  5
A4B
 10
182.891
 20
185.769
 30
0.00000
  70
    32
  0
VERTEX
  8
UKRYTE__ISO_
  5
A4C
 10
183.031
 20
185.794
 30
0.00000
  70
    32
  0
VERTEX
  8
UKRYTE__ISO_
  5
A4D
 10
183.170
 20
185.824
 30
0.00000
  70
    32
  0
VERTEX
  8
UKRYTE__ISO_
  5
A4E
 10
183.308
 20
185.859
 30
0.00000
  70
    32
  0
VERTEX
  8
UKRYTE__ISO_
  5
A4F
 10
183.444
 20
185.898
 30
0.00000
  70
    32
  0
VERTEX
  8
UKRYTE__ISO_
  5
A50
 10
183.578
 20
185.943
 30
0.00000
  70
    32
  0
VERTEX
  8
UKRYTE__ISO_
  5
A51
 10
183.710
 20
185.992
 30
0.00000
  70
    32
  0
VERTEX
  8
UKRYTE__ISO_
  5
A52
 10
183.840
 20
186.046
 30
0.00000
  70
    32
  0
VERTEX
  8
UKRYTE__ISO_
  5
A53
 10
183.968
 20
186.104
 30
0.00000
  70
    32
  0
VERTEX
  8
UKRYTE__ISO_
  5
A54
 10
184.093
 20
186.166
 30
0.00000
  70
    32
  0
VERTEX
  8
UKRYTE__ISO_
  5
A55
 10
184.215
 20
186.233
 30
0.00000
  70
    32
  0
VERTEX
  8
UKRYTE__ISO_
  5
A56
 10
184.334
 20
186.305
 30
0.00000
  70
    32
  0
VERTEX
  8
UKRYTE__ISO_
  5
A57
 10
184.450
 20
186.380
 30
0.00000
  70
    32
  0
VERTEX
  8
UKRYTE__ISO_
  5
A58
 10
184.563
 20
186.459
 30
0.00000
  70
    32
  0
VERTEX
  8
UKRYTE__ISO_
  5
A59
 10
184.672
 20
186.542
 30
0.00000
  70
    32
  0
VERTEX
  8
UKRYTE__ISO_
  5
A5A
 10
184.778
 20
186.629
 30
0.00000
  70
    32
  0
VERTEX
  8
UKRYTE__ISO_
  5
A5B
 10
184.880
 20
186.720
 30
0.00000
  70
    32
  0
VERTEX
  8
UKRYTE__ISO_
  5
A5C
 10
184.978
 20
186.814
 30
0.00000
  70
    32
  0
VERTEX
  8
UKRYTE__ISO_
  5
A5D
 10
185.071
 20
186.912
 30
0.00000
  70
    32
  0
VERTEX
  8
UKRYTE__ISO_
  5
A5E
 10
185.161
 20
187.012
 30
0.00000
  70
    32
  0
SEQEND
  8
UKRYTE__ISO_
  5
A5F
  0
LINE
  5
138
  8
UKRYTE__ISO_
 10
182.2434436343359039
 20
192.3638026043821014
 30
0.0
 11
187.5372897881819938
 21
192.3638026043821014
 31
0.0
  0
LINE
  5
139
  8
UKRYTE__ISO_
 10
182.2434436343359039
 20
185.7168026043821101
 30
0.0
 11
187.5372897881819938
 21
185.7168026043821101
 31
0.0
  0
POLYLINE
  5
13A
  8
WIDOCZNE__ISO_
 10
185.1606560616916966
 20
187.0123709468036282
 30
0.0
 66
     1
 70
     8
  0
VERTEX
  8
WIDOCZNE__ISO_
  5
A60
 10
185.161
 20
187.012
 30
0.00000
  70
    32
  0
VERTEX
  8
WIDOCZNE__ISO_
  5
A61
 10
185.184
 20
187.039
 30
0.00000
  70
    32
  0
VERTEX
  8
WIDOCZNE__ISO_
  5
A62
 10
185.206
 20
187.067
 30
0.00000
  70
    32
  0
VERTEX
  8
WIDOCZNE__ISO_
  5
A63
 10
185.228
 20
187.094
 30
0.00000
  70
    32
  0
VERTEX
  8
WIDOCZNE__ISO_
  5
A64
 10
185.250
 20
187.122
 30
0.00000
  70
    32
  0
VERTEX
  8
WIDOCZNE__ISO_
  5
A65
 10
185.272
 20
187.150
 30
0.00000
  70
    32
  0
VERTEX
  8
WIDOCZNE__ISO_
  5
A66
 10
185.293
 20
187.178
 30
0.00000
  70
    32
  0
VERTEX
  8
WIDOCZNE__ISO_
  5
A67
 10
185.314
 20
187.206
 30
0.00000
  70
    32
  0
VERTEX
  8
WIDOCZNE__ISO_
  5
A68
 10
185.335
 20
187.235
 30
0.00000
  70
    32
  0
VERTEX
  8
WIDOCZNE__ISO_
  5
A69
 10
185.355
 20
187.264
 30
0.00000
  70
    32
  0
VERTEX
  8
WIDOCZNE__ISO_
  5
A6A
 10
185.375
 20
187.293
 30
0.00000
  70
    32
  0
VERTEX
  8
WIDOCZNE__ISO_
  5
A6B
 10
185.395
 20
187.322
 30
0.00000
  70
    32
  0
VERTEX
  8
WIDOCZNE__ISO_
  5
A6C
 10
185.414
 20
187.351
 30
0.00000
  70
    32
  0
VERTEX
  8
WIDOCZNE__ISO_
  5
A6D
 10
185.433
 20
187.380
 30
0.00000
  70
    32
  0
VERTEX
  8
WIDOCZNE__ISO_
  5
A6E
 10
185.452
 20
187.410
 30
0.00000
  70
    32
  0
VERTEX
  8
WIDOCZNE__ISO_
  5
A6F
 10
185.470
 20
187.440
 30
0.00000
  70
    32
  0
VERTEX
  8
WIDOCZNE__ISO_
  5
A70
 10
185.488
 20
187.470
 30
0.00000
  70
    32
  0
VERTEX
  8
WIDOCZNE__ISO_
  5
A71
 10
185.506
 20
187.500
 30
0.00000
  70
    32
  0
VERTEX
  8
WIDOCZNE__ISO_
  5
A72
 10
185.523
 20
187.530
 30
0.00000
  70
    32
  0
VERTEX
  8
WIDOCZNE__ISO_
  5
A73
 10
185.540
 20
187.561
 30
0.00000
  70
    32
  0
VERTEX
  8
WIDOCZNE__ISO_
  5
A74
 10
185.557
 20
187.591
 30
0.00000
  70
    32
  0
VERTEX
  8
WIDOCZNE__ISO_
  5
A75
 10
185.573
 20
187.622
 30
0.00000
  70
    32
  0
VERTEX
  8
WIDOCZNE__ISO_
  5
A76
 10
185.589
 20
187.653
 30
0.00000
  70
    32
  0
VERTEX
  8
WIDOCZNE__ISO_
  5
A77
 10
185.605
 20
187.684
 30
0.00000
  70
    32
  0
VERTEX
  8
WIDOCZNE__ISO_
  5
A78
 10
185.620
 20
187.715
 30
0.00000
  70
    32
  0
VERTEX
  8
WIDOCZNE__ISO_
  5
A79
 10
185.635
 20
187.746
 30
0.00000
  70
    32
  0
VERTEX
  8
WIDOCZNE__ISO_
  5
A7A
 10
185.650
 20
187.778
 30
0.00000
  70
    32
  0
VERTEX
  8
WIDOCZNE__ISO_
  5
A7B
 10
185.664
 20
187.809
 30
0.00000
  70
    32
  0
VERTEX
  8
WIDOCZNE__ISO_
  5
A7C
 10
185.678
 20
187.841
 30
0.00000
  70
    32
  0
VERTEX
  8
WIDOCZNE__ISO_
  5
A7D
 10
185.691
 20
187.873
 30
0.00000
  70
    32
  0
VERTEX
  8
WIDOCZNE__ISO_
  5
A7E
 10
185.704
 20
187.905
 30
0.00000
  70
    32
  0
VERTEX
  8
WIDOCZNE__ISO_
  5
A7F
 10
185.717
 20
187.937
 30
0.00000
  70
    32
  0
VERTEX
  8
WIDOCZNE__ISO_
  5
A80
 10
185.729
 20
187.969
 30
0.00000
  70
    32
  0
VERTEX
  8
WIDOCZNE__ISO_
  5
A81
 10
185.741
 20
188.002
 30
0.00000
  70
    32
  0
VERTEX
  8
WIDOCZNE__ISO_
  5
A82
 10
185.753
 20
188.034
 30
0.00000
  70
    32
  0
VERTEX
  8
WIDOCZNE__ISO_
  5
A83
 10
185.764
 20
188.066
 30
0.00000
  70
    32
  0
VERTEX
  8
WIDOCZNE__ISO_
  5
A84
 10
185.775
 20
188.099
 30
0.00000
  70
    32
  0
VERTEX
  8
WIDOCZNE__ISO_
  5
A85
 10
185.785
 20
188.132
 30
0.00000
  70
    32
  0
VERTEX
  8
WIDOCZNE__ISO_
  5
A86
 10
185.795
 20
188.165
 30
0.00000
  70
    32
  0
VERTEX
  8
WIDOCZNE__ISO_
  5
A87
 10
185.805
 20
188.198
 30
0.00000
  70
    32
  0
VERTEX
  8
WIDOCZNE__ISO_
  5
A88
 10
185.815
 20
188.231
 30
0.00000
  70
    32
  0
VERTEX
  8
WIDOCZNE__ISO_
  5
A89
 10
185.824
 20
188.264
 30
0.00000
  70
    32
  0
VERTEX
  8
WIDOCZNE__ISO_
  5
A8A
 10
185.832
 20
188.297
 30
0.00000
  70
    32
  0
VERTEX
  8
WIDOCZNE__ISO_
  5
A8B
 10
185.841
 20
188.330
 30
0.00000
  70
    32
  0
VERTEX
  8
WIDOCZNE__ISO_
  5
A8C
 10
185.848
 20
188.363
 30
0.00000
  70
    32
  0
VERTEX
  8
WIDOCZNE__ISO_
  5
A8D
 10
185.856
 20
188.397
 30
0.00000
  70
    32
  0
VERTEX
  8
WIDOCZNE__ISO_
  5
A8E
 10
185.863
 20
188.430
 30
0.00000
  70
    32
  0
VERTEX
  8
WIDOCZNE__ISO_
  5
A8F
 10
185.870
 20
188.464
 30
0.00000
  70
    32
  0
VERTEX
  8
WIDOCZNE__ISO_
  5
A90
 10
185.876
 20
188.497
 30
0.00000
  70
    32
  0
VERTEX
  8
WIDOCZNE__ISO_
  5
A91
 10
185.882
 20
188.531
 30
0.00000
  70
    32
  0
VERTEX
  8
WIDOCZNE__ISO_
  5
A92
 10
185.888
 20
188.565
 30
0.00000
  70
    32
  0
VERTEX
  8
WIDOCZNE__ISO_
  5
A93
 10
185.893
 20
188.599
 30
0.00000
  70
    32
  0
VERTEX
  8
WIDOCZNE__ISO_
  5
A94
 10
185.898
 20
188.632
 30
0.00000
  70
    32
  0
VERTEX
  8
WIDOCZNE__ISO_
  5
A95
 10
185.902
 20
188.666
 30
0.00000
  70
    32
  0
VERTEX
  8
WIDOCZNE__ISO_
  5
A96
 10
185.906
 20
188.700
 30
0.00000
  70
    32
  0
VERTEX
  8
WIDOCZNE__ISO_
  5
A97
 10
185.910
 20
188.734
 30
0.00000
  70
    32
  0
VERTEX
  8
WIDOCZNE__ISO_
  5
A98
 10
185.913
 20
188.768
 30
0.00000
  70
    32
  0
VERTEX
  8
WIDOCZNE__ISO_
  5
A99
 10
185.916
 20
188.802
 30
0.00000
  70
    32
  0
VERTEX
  8
WIDOCZNE__ISO_
  5
A9A
 10
185.919
 20
188.836
 30
0.00000
  70
    32
  0
VERTEX
  8
WIDOCZNE__ISO_
  5
A9B
 10
185.921
 20
188.870
 30
0.00000
  70
    32
  0
VERTEX
  8
WIDOCZNE__ISO_
  5
A9C
 10
185.922
 20
188.904
 30
0.00000
  70
    32
  0
VERTEX
  8
WIDOCZNE__ISO_
  5
A9D
 10
185.924
 20
188.938
 30
0.00000
  70
    32
  0
VERTEX
  8
WIDOCZNE__ISO_
  5
A9E
 10
185.925
 20
188.972
 30
0.00000
  70
    32
  0
VERTEX
  8
WIDOCZNE__ISO_
  5
A9F
 10
185.925
 20
189.006
 30
0.00000
  70
    32
  0
VERTEX
  8
WIDOCZNE__ISO_
  5
AA0
 10
185.926
 20
189.040
 30
0.00000
  70
    32
  0
VERTEX
  8
WIDOCZNE__ISO_
  5
AA1
 10
185.925
 20
189.074
 30
0.00000
  70
    32
  0
VERTEX
  8
WIDOCZNE__ISO_
  5
AA2
 10
185.925
 20
189.108
 30
0.00000
  70
    32
  0
VERTEX
  8
WIDOCZNE__ISO_
  5
AA3
 10
185.924
 20
189.143
 30
0.00000
  70
    32
  0
VERTEX
  8
WIDOCZNE__ISO_
  5
AA4
 10
185.922
 20
189.177
 30
0.00000
  70
    32
  0
VERTEX
  8
WIDOCZNE__ISO_
  5
AA5
 10
185.921
 20
189.211
 30
0.00000
  70
    32
  0
VERTEX
  8
WIDOCZNE__ISO_
  5
AA6
 10
185.919
 20
189.245
 30
0.00000
  70
    32
  0
VERTEX
  8
WIDOCZNE__ISO_
  5
AA7
 10
185.916
 20
189.279
 30
0.00000
  70
    32
  0
VERTEX
  8
WIDOCZNE__ISO_
  5
AA8
 10
185.913
 20
189.313
 30
0.00000
  70
    32
  0
VERTEX
  8
WIDOCZNE__ISO_
  5
AA9
 10
185.910
 20
189.347
 30
0.00000
  70
    32
  0
VERTEX
  8
WIDOCZNE__ISO_
  5
AAA
 10
185.906
 20
189.381
 30
0.00000
  70
    32
  0
VERTEX
  8
WIDOCZNE__ISO_
  5
AAB
 10
185.902
 20
189.414
 30
0.00000
  70
    32
  0
VERTEX
  8
WIDOCZNE__ISO_
  5
AAC
 10
185.898
 20
189.448
 30
0.00000
  70
    32
  0
VERTEX
  8
WIDOCZNE__ISO_
  5
AAD
 10
185.893
 20
189.482
 30
0.00000
  70
    32
  0
VERTEX
  8
WIDOCZNE__ISO_
  5
AAE
 10
185.888
 20
189.516
 30
0.00000
  70
    32
  0
VERTEX
  8
WIDOCZNE__ISO_
  5
AAF
 10
185.882
 20
189.550
 30
0.00000
  70
    32
  0
VERTEX
  8
WIDOCZNE__ISO_
  5
AB0
 10
185.876
 20
189.583
 30
0.00000
  70
    32
  0
VERTEX
  8
WIDOCZNE__ISO_
  5
AB1
 10
185.870
 20
189.617
 30
0.00000
  70
    32
  0
VERTEX
  8
WIDOCZNE__ISO_
  5
AB2
 10
185.863
 20
189.650
 30
0.00000
  70
    32
  0
VERTEX
  8
WIDOCZNE__ISO_
  5
AB3
 10
185.856
 20
189.684
 30
0.00000
  70
    32
  0
VERTEX
  8
WIDOCZNE__ISO_
  5
AB4
 10
185.848
 20
189.717
 30
0.00000
  70
    32
  0
VERTEX
  8
WIDOCZNE__ISO_
  5
AB5
 10
185.841
 20
189.750
 30
0.00000
  70
    32
  0
VERTEX
  8
WIDOCZNE__ISO_
  5
AB6
 10
185.832
 20
189.784
 30
0.00000
  70
    32
  0
VERTEX
  8
WIDOCZNE__ISO_
  5
AB7
 10
185.824
 20
189.817
 30
0.00000
  70
    32
  0
VERTEX
  8
WIDOCZNE__ISO_
  5
AB8
 10
185.815
 20
189.850
 30
0.00000
  70
    32
  0
VERTEX
  8
WIDOCZNE__ISO_
  5
AB9
 10
185.805
 20
189.883
 30
0.00000
  70
    32
  0
VERTEX
  8
WIDOCZNE__ISO_
  5
ABA
 10
185.795
 20
189.916
 30
0.00000
  70
    32
  0
VERTEX
  8
WIDOCZNE__ISO_
  5
ABB
 10
185.785
 20
189.949
 30
0.00000
  70
    32
  0
VERTEX
  8
WIDOCZNE__ISO_
  5
ABC
 10
185.775
 20
189.982
 30
0.00000
  70
    32
  0
VERTEX
  8
WIDOCZNE__ISO_
  5
ABD
 10
185.764
 20
190.014
 30
0.00000
  70
    32
  0
VERTEX
  8
WIDOCZNE__ISO_
  5
ABE
 10
185.753
 20
190.047
 30
0.00000
  70
    32
  0
VERTEX
  8
WIDOCZNE__ISO_
  5
ABF
 10
185.741
 20
190.079
 30
0.00000
  70
    32
  0
VERTEX
  8
WIDOCZNE__ISO_
  5
AC0
 10
185.729
 20
190.111
 30
0.00000
  70
    32
  0
VERTEX
  8
WIDOCZNE__ISO_
  5
AC1
 10
185.717
 20
190.144
 30
0.00000
  70
    32
  0
VERTEX
  8
WIDOCZNE__ISO_
  5
AC2
 10
185.704
 20
190.176
 30
0.00000
  70
    32
  0
VERTEX
  8
WIDOCZNE__ISO_
  5
AC3
 10
185.691
 20
190.208
 30
0.00000
  70
    32
  0
VERTEX
  8
WIDOCZNE__ISO_
  5
AC4
 10
185.678
 20
190.240
 30
0.00000
  70
    32
  0
VERTEX
  8
WIDOCZNE__ISO_
  5
AC5
 10
185.664
 20
190.271
 30
0.00000
  70
    32
  0
VERTEX
  8
WIDOCZNE__ISO_
  5
AC6
 10
185.650
 20
190.303
 30
0.00000
  70
    32
  0
VERTEX
  8
WIDOCZNE__ISO_
  5
AC7
 10
185.635
 20
190.334
 30
0.00000
  70
    32
  0
VERTEX
  8
WIDOCZNE__ISO_
  5
AC8
 10
185.620
 20
190.366
 30
0.00000
  70
    32
  0
VERTEX
  8
WIDOCZNE__ISO_
  5
AC9
 10
185.605
 20
190.397
 30
0.00000
  70
    32
  0
VERTEX
  8
WIDOCZNE__ISO_
  5
ACA
 10
185.589
 20
190.428
 30
0.00000
  70
    32
  0
VERTEX
  8
WIDOCZNE__ISO_
  5
ACB
 10
185.573
 20
190.459
 30
0.00000
  70
    32
  0
VERTEX
  8
WIDOCZNE__ISO_
  5
ACC
 10
185.557
 20
190.489
 30
0.00000
  70
    32
  0
VERTEX
  8
WIDOCZNE__ISO_
  5
ACD
 10
185.540
 20
190.520
 30
0.00000
  70
    32
  0
VERTEX
  8
WIDOCZNE__ISO_
  5
ACE
 10
185.523
 20
190.551
 30
0.00000
  70
    32
  0
VERTEX
  8
WIDOCZNE__ISO_
  5
ACF
 10
185.506
 20
190.581
 30
0.00000
  70
    32
  0
VERTEX
  8
WIDOCZNE__ISO_
  5
AD0
 10
185.488
 20
190.611
 30
0.00000
  70
    32
  0
VERTEX
  8
WIDOCZNE__ISO_
  5
AD1
 10
185.470
 20
190.641
 30
0.00000
  70
    32
  0
VERTEX
  8
WIDOCZNE__ISO_
  5
AD2
 10
185.452
 20
190.671
 30
0.00000
  70
    32
  0
VERTEX
  8
WIDOCZNE__ISO_
  5
AD3
 10
185.433
 20
190.700
 30
0.00000
  70
    32
  0
VERTEX
  8
WIDOCZNE__ISO_
  5
AD4
 10
185.414
 20
190.730
 30
0.00000
  70
    32
  0
VERTEX
  8
WIDOCZNE__ISO_
  5
AD5
 10
185.395
 20
190.759
 30
0.00000
  70
    32
  0
VERTEX
  8
WIDOCZNE__ISO_
  5
AD6
 10
185.375
 20
190.788
 30
0.00000
  70
    32
  0
VERTEX
  8
WIDOCZNE__ISO_
  5
AD7
 10
185.355
 20
190.817
 30
0.00000
  70
    32
  0
VERTEX
  8
WIDOCZNE__ISO_
  5
AD8
 10
185.335
 20
190.846
 30
0.00000
  70
    32
  0
VERTEX
  8
WIDOCZNE__ISO_
  5
AD9
 10
185.314
 20
190.874
 30
0.00000
  70
    32
  0
VERTEX
  8
WIDOCZNE__ISO_
  5
ADA
 10
185.293
 20
190.902
 30
0.00000
  70
    32
  0
VERTEX
  8
WIDOCZNE__ISO_
  5
ADB
 10
185.272
 20
190.931
 30
0.00000
  70
    32
  0
VERTEX
  8
WIDOCZNE__ISO_
  5
ADC
 10
185.250
 20
190.959
 30
0.00000
  70
    32
  0
VERTEX
  8
WIDOCZNE__ISO_
  5
ADD
 10
185.228
 20
190.986
 30
0.00000
  70
    32
  0
VERTEX
  8
WIDOCZNE__ISO_
  5
ADE
 10
185.206
 20
191.014
 30
0.00000
  70
    32
  0
VERTEX
  8
WIDOCZNE__ISO_
  5
ADF
 10
185.184
 20
191.041
 30
0.00000
  70
    32
  0
VERTEX
  8
WIDOCZNE__ISO_
  5
AE0
 10
185.161
 20
191.068
 30
0.00000
  70
    32
  0
SEQEND
  8
WIDOCZNE__ISO_
  5
AE1
  0
POLYLINE
  5
13B
  8
WIDOCZNE__ISO_
 10
187.5372897881819938
 20
192.3638026043821867
 30
0.0
 66
     1
 70
     8
  0
VERTEX
  8
WIDOCZNE__ISO_
  5
AE2
 10
187.537
 20
192.364
 30
0.00000
  70
    32
  0
VERTEX
  8
WIDOCZNE__ISO_
  5
AE3
 10
187.390
 20
192.360
 30
0.00000
  70
    32
  0
VERTEX
  8
WIDOCZNE__ISO_
  5
AE4
 10
187.243
 20
192.348
 30
0.00000
  70
    32
  0
VERTEX
  8
WIDOCZNE__ISO_
  5
AE5
 10
187.097
 20
192.328
 30
0.00000
  70
    32
  0
VERTEX
  8
WIDOCZNE__ISO_
  5
AE6
 10
186.952
 20
192.300
 30
0.00000
  70
    32
  0
VERTEX
  8
WIDOCZNE__ISO_
  5
AE7
 10
186.808
 20
192.264
 30
0.00000
  70
    32
  0
VERTEX
  8
WIDOCZNE__ISO_
  5
AE8
 10
186.666
 20
192.221
 30
0.00000
  70
    32
  0
VERTEX
  8
WIDOCZNE__ISO_
  5
AE9
 10
186.527
 20
192.170
 30
0.00000
  70
    32
  0
VERTEX
  8
WIDOCZNE__ISO_
  5
AEA
 10
186.389
 20
192.111
 30
0.00000
  70
    32
  0
VERTEX
  8
WIDOCZNE__ISO_
  5
AEB
 10
186.255
 20
192.045
 30
0.00000
  70
    32
  0
VERTEX
  8
WIDOCZNE__ISO_
  5
AEC
 10
186.123
 20
191.971
 30
0.00000
  70
    32
  0
VERTEX
  8
WIDOCZNE__ISO_
  5
AED
 10
185.995
 20
191.891
 30
0.00000
  70
    32
  0
VERTEX
  8
WIDOCZNE__ISO_
  5
AEE
 10
185.871
 20
191.804
 30
0.00000
  70
    32
  0
VERTEX
  8
WIDOCZNE__ISO_
  5
AEF
 10
185.750
 20
191.710
 30
0.00000
  70
    32
  0
VERTEX
  8
WIDOCZNE__ISO_
  5
AF0
 10
185.634
 20
191.609
 30
0.00000
  70
    32
  0
VERTEX
  8
WIDOCZNE__ISO_
  5
AF1
 10
185.523
 20
191.503
 30
0.00000
  70
    32
  0
VERTEX
  8
WIDOCZNE__ISO_
  5
AF2
 10
185.416
 20
191.390
 30
0.00000
  70
    32
  0
VERTEX
  8
WIDOCZNE__ISO_
  5
AF3
 10
185.315
 20
191.272
 30
0.00000
  70
    32
  0
VERTEX
  8
WIDOCZNE__ISO_
  5
AF4
 10
185.218
 20
191.149
 30
0.00000
  70
    32
  0
VERTEX
  8
WIDOCZNE__ISO_
  5
AF5
 10
185.128
 20
191.020
 30
0.00000
  70
    32
  0
VERTEX
  8
WIDOCZNE__ISO_
  5
AF6
 10
185.043
 20
190.887
 30
0.00000
  70
    32
  0
VERTEX
  8
WIDOCZNE__ISO_
  5
AF7
 10
184.964
 20
190.749
 30
0.00000
  70
    32
  0
VERTEX
  8
WIDOCZNE__ISO_
  5
AF8
 10
184.892
 20
190.607
 30
0.00000
  70
    32
  0
VERTEX
  8
WIDOCZNE__ISO_
  5
AF9
 10
184.825
 20
190.461
 30
0.00000
  70
    32
  0
VERTEX
  8
WIDOCZNE__ISO_
  5
AFA
 10
184.766
 20
190.312
 30
0.00000
  70
    32
  0
VERTEX
  8
WIDOCZNE__ISO_
  5
AFB
 10
184.713
 20
190.160
 30
0.00000
  70
    32
  0
VERTEX
  8
WIDOCZNE__ISO_
  5
AFC
 10
184.667
 20
190.005
 30
0.00000
  70
    32
  0
VERTEX
  8
WIDOCZNE__ISO_
  5
AFD
 10
184.627
 20
189.848
 30
0.00000
  70
    32
  0
VERTEX
  8
WIDOCZNE__ISO_
  5
AFE
 10
184.595
 20
189.689
 30
0.00000
  70
    32
  0
VERTEX
  8
WIDOCZNE__ISO_
  5
AFF
 10
184.570
 20
189.528
 30
0.00000
  70
    32
  0
VERTEX
  8
WIDOCZNE__ISO_
  5
B00
 10
184.552
 20
189.366
 30
0.00000
  70
    32
  0
VERTEX
  8
WIDOCZNE__ISO_
  5
B01
 10
184.541
 20
189.203
 30
0.00000
  70
    32
  0
VERTEX
  8
WIDOCZNE__ISO_
  5
B02
 10
184.537
 20
189.040
 30
0.00000
  70
    32
  0
VERTEX
  8
WIDOCZNE__ISO_
  5
B03
 10
184.541
 20
188.877
 30
0.00000
  70
    32
  0
VERTEX
  8
WIDOCZNE__ISO_
  5
B04
 10
184.552
 20
188.715
 30
0.00000
  70
    32
  0
VERTEX
  8
WIDOCZNE__ISO_
  5
B05
 10
184.570
 20
188.553
 30
0.00000
  70
    32
  0
VERTEX
  8
WIDOCZNE__ISO_
  5
B06
 10
184.595
 20
188.392
 30
0.00000
  70
    32
  0
VERTEX
  8
WIDOCZNE__ISO_
  5
B07
 10
184.627
 20
188.233
 30
0.00000
  70
    32
  0
VERTEX
  8
WIDOCZNE__ISO_
  5
B08
 10
184.667
 20
188.076
 30
0.00000
  70
    32
  0
VERTEX
  8
WIDOCZNE__ISO_
  5
B09
 10
184.713
 20
187.921
 30
0.00000
  70
    32
  0
VERTEX
  8
WIDOCZNE__ISO_
  5
B0A
 10
184.766
 20
187.768
 30
0.00000
  70
    32
  0
VERTEX
  8
WIDOCZNE__ISO_
  5
B0B
 10
184.825
 20
187.619
 30
0.00000
  70
    32
  0
VERTEX
  8
WIDOCZNE__ISO_
  5
B0C
 10
184.892
 20
187.474
 30
0.00000
  70
    32
  0
VERTEX
  8
WIDOCZNE__ISO_
  5
B0D
 10
184.964
 20
187.332
 30
0.00000
  70
    32
  0
VERTEX
  8
WIDOCZNE__ISO_
  5
B0E
 10
185.043
 20
187.194
 30
0.00000
  70
    32
  0
VERTEX
  8
WIDOCZNE__ISO_
  5
B0F
 10
185.128
 20
187.060
 30
0.00000
  70
    32
  0
VERTEX
  8
WIDOCZNE__ISO_
  5
B10
 10
185.218
 20
186.932
 30
0.00000
  70
    32
  0
VERTEX
  8
WIDOCZNE__ISO_
  5
B11
 10
185.315
 20
186.808
 30
0.00000
  70
    32
  0
VERTEX
  8
WIDOCZNE__ISO_
  5
B12
 10
185.416
 20
186.690
 30
0.00000
  70
    32
  0
VERTEX
  8
WIDOCZNE__ISO_
  5
B13
 10
185.523
 20
186.578
 30
0.00000
  70
    32
  0
VERTEX
  8
WIDOCZNE__ISO_
  5
B14
 10
185.634
 20
186.471
 30
0.00000
  70
    32
  0
VERTEX
  8
WIDOCZNE__ISO_
  5
B15
 10
185.750
 20
186.371
 30
0.00000
  70
    32
  0
VERTEX
  8
WIDOCZNE__ISO_
  5
B16
 10
185.871
 20
186.277
 30
0.00000
  70
    32
  0
VERTEX
  8
WIDOCZNE__ISO_
  5
B17
 10
185.995
 20
186.190
 30
0.00000
  70
    32
  0
VERTEX
  8
WIDOCZNE__ISO_
  5
B18
 10
186.123
 20
186.109
 30
0.00000
  70
    32
  0
VERTEX
  8
WIDOCZNE__ISO_
  5
B19
 10
186.255
 20
186.036
 30
0.00000
  70
    32
  0
VERTEX
  8
WIDOCZNE__ISO_
  5
B1A
 10
186.389
 20
185.970
 30
0.00000
  70
    32
  0
VERTEX
  8
WIDOCZNE__ISO_
  5
B1B
 10
186.527
 20
185.911
 30
0.00000
  70
    32
  0
VERTEX
  8
WIDOCZNE__ISO_
  5
B1C
 10
186.666
 20
185.860
 30
0.00000
  70
    32
  0
VERTEX
  8
WIDOCZNE__ISO_
  5
B1D
 10
186.808
 20
185.816
 30
0.00000
  70
    32
  0
VERTEX
  8
WIDOCZNE__ISO_
  5
B1E
 10
186.952
 20
185.781
 30
0.00000
  70
    32
  0
VERTEX
  8
WIDOCZNE__ISO_
  5
B1F
 10
187.097
 20
185.753
 30
0.00000
  70
    32
  0
VERTEX
  8
WIDOCZNE__ISO_
  5
B20
 10
187.243
 20
185.733
 30
0.00000
  70
    32
  0
VERTEX
  8
WIDOCZNE__ISO_
  5
B21
 10
187.390
 20
185.721
 30
0.00000
  70
    32
  0
VERTEX
  8
WIDOCZNE__ISO_
  5
B22
 10
187.537
 20
185.717
 30
0.00000
  70
    32
  0
VERTEX
  8
WIDOCZNE__ISO_
  5
B23
 10
187.684
 20
185.721
 30
0.00000
  70
    32
  0
VERTEX
  8
WIDOCZNE__ISO_
  5
B24
 10
187.831
 20
185.733
 30
0.00000
  70
    32
  0
VERTEX
  8
WIDOCZNE__ISO_
  5
B25
 10
187.977
 20
185.753
 30
0.00000
  70
    32
  0
VERTEX
  8
WIDOCZNE__ISO_
  5
B26
 10
188.123
 20
185.781
 30
0.00000
  70
    32
  0
VERTEX
  8
WIDOCZNE__ISO_
  5
B27
 10
188.266
 20
185.816
 30
0.00000
  70
    32
  0
VERTEX
  8
WIDOCZNE__ISO_
  5
B28
 10
188.408
 20
185.860
 30
0.00000
  70
    32
  0
VERTEX
  8
WIDOCZNE__ISO_
  5
B29
 10
188.548
 20
185.911
 30
0.00000
  70
    32
  0
VERTEX
  8
WIDOCZNE__ISO_
  5
B2A
 10
188.685
 20
185.970
 30
0.00000
  70
    32
  0
VERTEX
  8
WIDOCZNE__ISO_
  5
B2B
 10
188.820
 20
186.036
 30
0.00000
  70
    32
  0
VERTEX
  8
WIDOCZNE__ISO_
  5
B2C
 10
188.951
 20
186.109
 30
0.00000
  70
    32
  0
VERTEX
  8
WIDOCZNE__ISO_
  5
B2D
 10
189.079
 20
186.190
 30
0.00000
  70
    32
  0
VERTEX
  8
WIDOCZNE__ISO_
  5
B2E
 10
189.204
 20
186.277
 30
0.00000
  70
    32
  0
VERTEX
  8
WIDOCZNE__ISO_
  5
B2F
 10
189.324
 20
186.371
 30
0.00000
  70
    32
  0
VERTEX
  8
WIDOCZNE__ISO_
  5
B30
 10
189.440
 20
186.471
 30
0.00000
  70
    32
  0
VERTEX
  8
WIDOCZNE__ISO_
  5
B31
 10
189.552
 20
186.578
 30
0.00000
  70
    32
  0
VERTEX
  8
WIDOCZNE__ISO_
  5
B32
 10
189.658
 20
186.690
 30
0.00000
  70
    32
  0
VERTEX
  8
WIDOCZNE__ISO_
  5
B33
 10
189.760
 20
186.808
 30
0.00000
  70
    32
  0
VERTEX
  8
WIDOCZNE__ISO_
  5
B34
 10
189.856
 20
186.932
 30
0.00000
  70
    32
  0
VERTEX
  8
WIDOCZNE__ISO_
  5
B35
 10
189.947
 20
187.060
 30
0.00000
  70
    32
  0
VERTEX
  8
WIDOCZNE__ISO_
  5
B36
 10
190.032
 20
187.194
 30
0.00000
  70
    32
  0
VERTEX
  8
WIDOCZNE__ISO_
  5
B37
 10
190.110
 20
187.332
 30
0.00000
  70
    32
  0
VERTEX
  8
WIDOCZNE__ISO_
  5
B38
 10
190.183
 20
187.474
 30
0.00000
  70
    32
  0
VERTEX
  8
WIDOCZNE__ISO_
  5
B39
 10
190.249
 20
187.619
 30
0.00000
  70
    32
  0
VERTEX
  8
WIDOCZNE__ISO_
  5
B3A
 10
190.309
 20
187.768
 30
0.00000
  70
    32
  0
VERTEX
  8
WIDOCZNE__ISO_
  5
B3B
 10
190.362
 20
187.921
 30
0.00000
  70
    32
  0
VERTEX
  8
WIDOCZNE__ISO_
  5
B3C
 10
190.408
 20
188.076
 30
0.00000
  70
    32
  0
VERTEX
  8
WIDOCZNE__ISO_
  5
B3D
 10
190.447
 20
188.233
 30
0.00000
  70
    32
  0
VERTEX
  8
WIDOCZNE__ISO_
  5
B3E
 10
190.479
 20
188.392
 30
0.00000
  70
    32
  0
VERTEX
  8
WIDOCZNE__ISO_
  5
B3F
 10
190.505
 20
188.553
 30
0.00000
  70
    32
  0
VERTEX
  8
WIDOCZNE__ISO_
  5
B40
 10
190.523
 20
188.715
 30
0.00000
  70
    32
  0
VERTEX
  8
WIDOCZNE__ISO_
  5
B41
 10
190.533
 20
188.877
 30
0.00000
  70
    32
  0
VERTEX
  8
WIDOCZNE__ISO_
  5
B42
 10
190.537
 20
189.040
 30
0.00000
  70
    32
  0
VERTEX
  8
WIDOCZNE__ISO_
  5
B43
 10
190.533
 20
189.203
 30
0.00000
  70
    32
  0
VERTEX
  8
WIDOCZNE__ISO_
  5
B44
 10
190.523
 20
189.366
 30
0.00000
  70
    32
  0
VERTEX
  8
WIDOCZNE__ISO_
  5
B45
 10
190.505
 20
189.528
 30
0.00000
  70
    32
  0
VERTEX
  8
WIDOCZNE__ISO_
  5
B46
 10
190.479
 20
189.689
 30
0.00000
  70
    32
  0
VERTEX
  8
WIDOCZNE__ISO_
  5
B47
 10
190.447
 20
189.848
 30
0.00000
  70
    32
  0
VERTEX
  8
WIDOCZNE__ISO_
  5
B48
 10
190.408
 20
190.005
 30
0.00000
  70
    32
  0
VERTEX
  8
WIDOCZNE__ISO_
  5
B49
 10
190.362
 20
190.160
 30
0.00000
  70
    32
  0
VERTEX
  8
WIDOCZNE__ISO_
  5
B4A
 10
190.309
 20
190.312
 30
0.00000
  70
    32
  0
VERTEX
  8
WIDOCZNE__ISO_
  5
B4B
 10
190.249
 20
190.461
 30
0.00000
  70
    32
  0
VERTEX
  8
WIDOCZNE__ISO_
  5
B4C
 10
190.183
 20
190.607
 30
0.00000
  70
    32
  0
VERTEX
  8
WIDOCZNE__ISO_
  5
B4D
 10
190.110
 20
190.749
 30
0.00000
  70
    32
  0
VERTEX
  8
WIDOCZNE__ISO_
  5
B4E
 10
190.032
 20
190.887
 30
0.00000
  70
    32
  0
VERTEX
  8
WIDOCZNE__ISO_
  5
B4F
 10
189.947
 20
191.020
 30
0.00000
  70
    32
  0
VERTEX
  8
WIDOCZNE__ISO_
  5
B50
 10
189.856
 20
191.149
 30
0.00000
  70
    32
  0
VERTEX
  8
WIDOCZNE__ISO_
  5
B51
 10
189.760
 20
191.272
 30
0.00000
  70
    32
  0
VERTEX
  8
WIDOCZNE__ISO_
  5
B52
 10
189.658
 20
191.390
 30
0.00000
  70
    32
  0
VERTEX
  8
WIDOCZNE__ISO_
  5
B53
 10
189.552
 20
191.503
 30
0.00000
  70
    32
  0
VERTEX
  8
WIDOCZNE__ISO_
  5
B54
 10
189.440
 20
191.609
 30
0.00000
  70
    32
  0
VERTEX
  8
WIDOCZNE__ISO_
  5
B55
 10
189.324
 20
191.710
 30
0.00000
  70
    32
  0
VERTEX
  8
WIDOCZNE__ISO_
  5
B56
 10
189.204
 20
191.804
 30
0.00000
  70
    32
  0
VERTEX
  8
WIDOCZNE__ISO_
  5
B57
 10
189.079
 20
191.891
 30
0.00000
  70
    32
  0
VERTEX
  8
WIDOCZNE__ISO_
  5
B58
 10
188.951
 20
191.971
 30
0.00000
  70
    32
  0
VERTEX
  8
WIDOCZNE__ISO_
  5
B59
 10
188.820
 20
192.045
 30
0.00000
  70
    32
  0
VERTEX
  8
WIDOCZNE__ISO_
  5
B5A
 10
188.685
 20
192.111
 30
0.00000
  70
    32
  0
VERTEX
  8
WIDOCZNE__ISO_
  5
B5B
 10
188.548
 20
192.170
 30
0.00000
  70
    32
  0
VERTEX
  8
WIDOCZNE__ISO_
  5
B5C
 10
188.408
 20
192.221
 30
0.00000
  70
    32
  0
VERTEX
  8
WIDOCZNE__ISO_
  5
B5D
 10
188.266
 20
192.264
 30
0.00000
  70
    32
  0
VERTEX
  8
WIDOCZNE__ISO_
  5
B5E
 10
188.123
 20
192.300
 30
0.00000
  70
    32
  0
VERTEX
  8
WIDOCZNE__ISO_
  5
B5F
 10
187.977
 20
192.328
 30
0.00000
  70
    32
  0
VERTEX
  8
WIDOCZNE__ISO_
  5
B60
 10
187.831
 20
192.348
 30
0.00000
  70
    32
  0
VERTEX
  8
WIDOCZNE__ISO_
  5
B61
 10
187.684
 20
192.360
 30
0.00000
  70
    32
  0
VERTEX
  8
WIDOCZNE__ISO_
  5
B62
 10
187.537
 20
192.364
 30
0.00000
  70
    32
  0
SEQEND
  8
WIDOCZNE__ISO_
  5
B63
  0
ARC
  5
13C
  8
WIDOCZNE__ISO_
 10
173.5372897881819938
 20
189.040302604382191
 30
0.0
 40
4.1500000000000004
 50
102.6034527479936003
 51
257.3965472520064282
  0
ARC
  5
13D
  8
WIDOCZNE__ISO_
 10
173.5372897881819938
 20
189.040302604382191
 30
0.0
 40
4.1499999999999932
 50
257.3965472520064282
 51
282.6034527479935718
  0
ARC
  5
13E
  8
WIDOCZNE__ISO_
 10
173.5372897881819938
 20
189.040302604382191
 30
0.0
 40
4.1499999999999986
 50
282.6034527479935718
 51
77.3965472520068261
  0
ARC
  5
13F
  8
WIDOCZNE__ISO_
 10
173.5372897881819938
 20
189.040302604382191
 30
0.0
 40
4.149999999999995
 50
77.3965472520058881
 51
102.6034527479936003
  0
LINE
  5
140
  8
WIDOCZNE__ISO_
 10
194.0372897881819938
 20
195.790302604382191
 30
0.0
 11
194.0372897881819938
 21
193.0903026043822024
 31
0.0
  0
LINE
  5
141
  8
WIDOCZNE__ISO_
 10
166.0372897881819938
 20
195.790302604382191
 30
0.0
 11
194.0372897881819938
 21
195.790302604382191
 31
0.0
  0
LINE
  5
142
  8
WIDOCZNE__ISO_
 10
166.0372897881819938
 20
193.0903026043822024
 30
0.0
 11
166.0372897881819938
 21
195.790302604382191
 31
0.0
  0
LINE
  5
143
  8
WIDOCZNE__ISO_
 10
181.0372897881819938
 20
193.0903026043822024
 30
0.0
 11
174.4428283019956893
 21
193.0903026043822024
 31
0.0
  0
LINE
  5
144
  8
WIDOCZNE__ISO_
 10
194.0372897881819938
 20
193.0903026043822024
 30
0.0
 11
181.0372897881819938
 21
193.0903026043822024
 31
0.0
  0
LINE
  5
145
  8
WIDOCZNE__ISO_
 10
174.4428283019956893
 20
184.9903026043822081
 30
0.0
 11
181.0372897881819938
 21
184.9903026043822081
 31
0.0
  0
LINE
  5
146
  8
WIDOCZNE__ISO_
 10
166.0372897881819938
 20
182.290302604382191
 30
0.0
 11
166.0372897881819938
 21
184.9903026043822081
 31
0.0
  0
LINE
  5
147
  8
WIDOCZNE__ISO_
 10
194.0372897881819938
 20
182.290302604382191
 30
0.0
 11
166.0372897881819938
 21
182.290302604382191
 31
0.0
  0
LINE
  5
148
  8
WIDOCZNE__ISO_
 10
194.0372897881819938
 20
184.9903026043822081
 30
0.0
 11
194.0372897881819938
 21
182.290302604382191
 31
0.0
  0
LINE
  5
149
  8
WIDOCZNE__ISO_
 10
166.0372897881819938
 20
184.9903026043822081
 30
0.0
 11
172.6317512743682983
 21
184.9903026043822081
 31
0.0
  0
LINE
  5
14A
  8
WIDOCZNE__ISO_
 10
181.0372897881819938
 20
184.9903026043822081
 30
0.0
 11
194.0372897881819938
 21
184.9903026043822081
 31
0.0
  0
LINE
  5
14B
  8
WIDOCZNE__ISO_
 10
172.6317512743682983
 20
193.0903026043822024
 30
0.0
 11
166.0372897881819938
 21
193.0903026043822024
 31
0.0
  0
LINE
  5
14C
  8
WIDOCZNE__ISO_
 10
166.0372897881819938
 20
184.9903026043822081
 30
0.0
 11
166.0372897881819938
 21
193.0903026043822024
 31
0.0
  0
LINE
  5
14D
  8
WIDOCZNE__ISO_
 10
194.0372897881819938
 20
184.9903026043822081
 30
0.0
 11
194.0372897881819938
 21
193.0903026043822024
 31
0.0
  0
LINE
  5
14E
  8
WIDOCZNE__ISO_
 10
181.0372897881819938
 20
184.9903026043822081
 30
0.0
 11
181.0372897881819938
 21
193.0903026043822024
 31
0.0
  0
LINE
  5
14F
  8
WIDOCZNE__ISO_
 10
172.6317512743682983
 20
118.0569910391469932
 30
0.0
 11
172.6317512743682983
 21
122.0569910391469932
 31
0.0
  0
LINE
  5
150
  8
WIDOCZNE__ISO_
 10
174.4428283019956893
 20
122.0569910391469932
 30
0.0
 11
174.4428283019956893
 21
118.0569910391469932
 31
0.0
  0
LINE
  5
151
  8
WIDOCZNE__ISO_
 10
166.0372897881819938
 20
122.0569910391478032
 30
0.0
 11
194.0372897881819938
 21
122.0569910391478032
 31
0.0
  0
LINE
  5
152
  8
WIDOCZNE__ISO_
 10
181.0372897881819938
 20
118.0569910391469932
 30
0.0
 11
174.4428283019956893
 21
118.0569910391469932
 31
0.0
  0
LINE
  5
153
  8
WIDOCZNE__ISO_
 10
181.0372897881819938
 20
111.3569910391470046
 30
0.0
 11
181.0372897881819938
 21
118.0569910391469932
 31
0.0
  0
LINE
  5
154
  8
WIDOCZNE__ISO_
 10
194.0372897881819938
 20
117.5569910391469932
 30
0.0
 11
181.0372897881819938
 21
111.3569910391470046
 31
0.0
  0
LINE
  5
155
  8
WIDOCZNE__ISO_
 10
194.0372897881819938
 20
122.0569910391471069
 30
0.0
 11
194.0372897881819938
 21
117.5569910391469932
 31
0.0
  0
LINE
  5
156
  8
WIDOCZNE__ISO_
 10
166.0372897881819938
 20
118.0569910391469932
 30
0.0
 11
166.0372897881819938
 21
122.0569910391469932
 31
0.0
  0
LINE
  5
157
  8
WIDOCZNE__ISO_
 10
172.6317512743682983
 20
118.0569910391469932
 30
0.0
 11
166.0372897881819938
 21
118.0569910391469932
 31
0.0
  0
LINE
  5
158
  8
WIDOCZNE__ISO_
 10
194.0372897881819938
 20
125.5569910391479027
 30
0.0
 11
194.0372897881819938
 21
122.0569910391478032
 31
0.0
  0
LINE
  5
159
  8
WIDOCZNE__ISO_
 10
166.0372897881819938
 20
125.5569910391479027
 30
0.0
 11
194.0372897881819938
 21
125.5569910391479027
 31
0.0
  0
LINE
  5
15A
  8
WIDOCZNE__ISO_
 10
166.0372897881819938
 20
122.0569910391478032
 30
0.0
 11
166.0372897881819938
 21
125.5569910391479027
 31
0.0
  0
LINE
  5
15B
  8
UKRYTE__ISO_
 10
185.925569100042793
 20
125.556991039145899
 30
0.0
 11
190.5370931226617017
 21
115.8876664755899952
 31
0.0
  0
LINE
  5
15C
  8
UKRYTE__ISO_
 10
178.5613181686289863
 20
125.556991039145899
 30
0.0
 11
184.5374864537022859
 21
113.0263156027017004
 31
0.0
  0
LINE
  5
15D
  8
UKRYTE__ISO_
 10
177.6872897881819995
 20
125.5569910391457995
 30
0.0
 11
177.6872897881819995
 21
118.0569910391457995
 31
0.0
  0
LINE
  5
15E
  8
UKRYTE__ISO_
 10
169.3872897881819881
 20
125.5569910391457995
 30
0.0
 11
169.3872897881819881
 21
118.0569910391457995
 31
0.0
  0
LINE
  5
15F
  8
UKRYTE__ISO_
 10
191.1477045129958867
 20
116.178881138672395
 30
0.0
 11
186.6750674835392942
 21
125.5569910391457995
 31
0.0
  0
LINE
  5
160
  8
UKRYTE__ISO_
 10
177.8118197851325135
 20
125.5569910391457995
 30
0.0
 11
183.9268750633681861
 21
112.7351009396193007
 31
0.0
  0
POLYLINE
  5
161
  8
UKRYTE__ISO_
 10
240.4995529718945875
 20
192.3638026043821867
 30
0.0
 66
     1
 70
     8
  0
VERTEX
  8
UKRYTE__ISO_
  5
B64
 10
240.500
 20
192.364
 30
0.00000
  70
    32
  0
VERTEX
  8
UKRYTE__ISO_
  5
B65
 10
240.429
 20
192.360
 30
0.00000
  70
    32
  0
VERTEX
  8
UKRYTE__ISO_
  5
B66
 10
240.359
 20
192.348
 30
0.00000
  70
    32
  0
VERTEX
  8
UKRYTE__ISO_
  5
B67
 10
240.290
 20
192.328
 30
0.00000
  70
    32
  0
VERTEX
  8
UKRYTE__ISO_
  5
B68
 10
240.220
 20
192.300
 30
0.00000
  70
    32
  0
VERTEX
  8
UKRYTE__ISO_
  5
B69
 10
240.152
 20
192.264
 30
0.00000
  70
    32
  0
VERTEX
  8
UKRYTE__ISO_
  5
B6A
 10
240.084
 20
192.221
 30
0.00000
  70
    32
  0
VERTEX
  8
UKRYTE__ISO_
  5
B6B
 10
240.018
 20
192.170
 30
0.00000
  70
    32
  0
VERTEX
  8
UKRYTE__ISO_
  5
B6C
 10
239.952
 20
192.111
 30
0.00000
  70
    32
  0
VERTEX
  8
UKRYTE__ISO_
  5
B6D
 10
239.888
 20
192.045
 30
0.00000
  70
    32
  0
VERTEX
  8
UKRYTE__ISO_
  5
B6E
 10
239.825
 20
191.971
 30
0.00000
  70
    32
  0
VERTEX
  8
UKRYTE__ISO_
  5
B6F
 10
239.764
 20
191.891
 30
0.00000
  70
    32
  0
VERTEX
  8
UKRYTE__ISO_
  5
B70
 10
239.705
 20
191.804
 30
0.00000
  70
    32
  0
VERTEX
  8
UKRYTE__ISO_
  5
B71
 10
239.647
 20
191.710
 30
0.00000
  70
    32
  0
VERTEX
  8
UKRYTE__ISO_
  5
B72
 10
239.592
 20
191.609
 30
0.00000
  70
    32
  0
VERTEX
  8
UKRYTE__ISO_
  5
B73
 10
239.539
 20
191.503
 30
0.00000
  70
    32
  0
VERTEX
  8
UKRYTE__ISO_
  5
B74
 10
239.488
 20
191.390
 30
0.00000
  70
    32
  0
VERTEX
  8
UKRYTE__ISO_
  5
B75
 10
239.439
 20
191.272
 30
0.00000
  70
    32
  0
VERTEX
  8
UKRYTE__ISO_
  5
B76
 10
239.394
 20
191.149
 30
0.00000
  70
    32
  0
VERTEX
  8
UKRYTE__ISO_
  5
B77
 10
239.350
 20
191.020
 30
0.00000
  70
    32
  0
VERTEX
  8
UKRYTE__ISO_
  5
B78
 10
239.310
 20
190.887
 30
0.00000
  70
    32
  0
VERTEX
  8
UKRYTE__ISO_
  5
B79
 10
239.272
 20
190.749
 30
0.00000
  70
    32
  0
VERTEX
  8
UKRYTE__ISO_
  5
B7A
 10
239.238
 20
190.607
 30
0.00000
  70
    32
  0
VERTEX
  8
UKRYTE__ISO_
  5
B7B
 10
239.206
 20
190.461
 30
0.00000
  70
    32
  0
VERTEX
  8
UKRYTE__ISO_
  5
B7C
 10
239.178
 20
190.312
 30
0.00000
  70
    32
  0
VERTEX
  8
UKRYTE__ISO_
  5
B7D
 10
239.153
 20
190.160
 30
0.00000
  70
    32
  0
VERTEX
  8
UKRYTE__ISO_
  5
B7E
 10
239.130
 20
190.005
 30
0.00000
  70
    32
  0
VERTEX
  8
UKRYTE__ISO_
  5
B7F
 10
239.112
 20
189.848
 30
0.00000
  70
    32
  0
VERTEX
  8
UKRYTE__ISO_
  5
B80
 10
239.096
 20
189.689
 30
0.00000
  70
    32
  0
VERTEX
  8
UKRYTE__ISO_
  5
B81
 10
239.084
 20
189.528
 30
0.00000
  70
    32
  0
VERTEX
  8
UKRYTE__ISO_
  5
B82
 10
239.076
 20
189.366
 30
0.00000
  70
    32
  0
VERTEX
  8
UKRYTE__ISO_
  5
B83
 10
239.071
 20
189.203
 30
0.00000
  70
    32
  0
VERTEX
  8
UKRYTE__ISO_
  5
B84
 10
239.069
 20
189.040
 30
0.00000
  70
    32
  0
VERTEX
  8
UKRYTE__ISO_
  5
B85
 10
239.071
 20
188.877
 30
0.00000
  70
    32
  0
VERTEX
  8
UKRYTE__ISO_
  5
B86
 10
239.076
 20
188.715
 30
0.00000
  70
    32
  0
VERTEX
  8
UKRYTE__ISO_
  5
B87
 10
239.084
 20
188.553
 30
0.00000
  70
    32
  0
VERTEX
  8
UKRYTE__ISO_
  5
B88
 10
239.096
 20
188.392
 30
0.00000
  70
    32
  0
VERTEX
  8
UKRYTE__ISO_
  5
B89
 10
239.112
 20
188.233
 30
0.00000
  70
    32
  0
VERTEX
  8
UKRYTE__ISO_
  5
B8A
 10
239.130
 20
188.076
 30
0.00000
  70
    32
  0
VERTEX
  8
UKRYTE__ISO_
  5
B8B
 10
239.153
 20
187.921
 30
0.00000
  70
    32
  0
VERTEX
  8
UKRYTE__ISO_
  5
B8C
 10
239.178
 20
187.768
 30
0.00000
  70
    32
  0
VERTEX
  8
UKRYTE__ISO_
  5
B8D
 10
239.206
 20
187.619
 30
0.00000
  70
    32
  0
VERTEX
  8
UKRYTE__ISO_
  5
B8E
 10
239.238
 20
187.474
 30
0.00000
  70
    32
  0
VERTEX
  8
UKRYTE__ISO_
  5
B8F
 10
239.272
 20
187.332
 30
0.00000
  70
    32
  0
VERTEX
  8
UKRYTE__ISO_
  5
B90
 10
239.310
 20
187.194
 30
0.00000
  70
    32
  0
VERTEX
  8
UKRYTE__ISO_
  5
B91
 10
239.350
 20
187.060
 30
0.00000
  70
    32
  0
VERTEX
  8
UKRYTE__ISO_
  5
B92
 10
239.394
 20
186.932
 30
0.00000
  70
    32
  0
VERTEX
  8
UKRYTE__ISO_
  5
B93
 10
239.439
 20
186.808
 30
0.00000
  70
    32
  0
VERTEX
  8
UKRYTE__ISO_
  5
B94
 10
239.488
 20
186.690
 30
0.00000
  70
    32
  0
VERTEX
  8
UKRYTE__ISO_
  5
B95
 10
239.539
 20
186.578
 30
0.00000
  70
    32
  0
VERTEX
  8
UKRYTE__ISO_
  5
B96
 10
239.592
 20
186.471
 30
0.00000
  70
    32
  0
VERTEX
  8
UKRYTE__ISO_
  5
B97
 10
239.647
 20
186.371
 30
0.00000
  70
    32
  0
VERTEX
  8
UKRYTE__ISO_
  5
B98
 10
239.705
 20
186.277
 30
0.00000
  70
    32
  0
VERTEX
  8
UKRYTE__ISO_
  5
B99
 10
239.764
 20
186.190
 30
0.00000
  70
    32
  0
VERTEX
  8
UKRYTE__ISO_
  5
B9A
 10
239.825
 20
186.109
 30
0.00000
  70
    32
  0
VERTEX
  8
UKRYTE__ISO_
  5
B9B
 10
239.888
 20
186.036
 30
0.00000
  70
    32
  0
VERTEX
  8
UKRYTE__ISO_
  5
B9C
 10
239.952
 20
185.970
 30
0.00000
  70
    32
  0
VERTEX
  8
UKRYTE__ISO_
  5
B9D
 10
240.018
 20
185.911
 30
0.00000
  70
    32
  0
VERTEX
  8
UKRYTE__ISO_
  5
B9E
 10
240.084
 20
185.860
 30
0.00000
  70
    32
  0
VERTEX
  8
UKRYTE__ISO_
  5
B9F
 10
240.152
 20
185.816
 30
0.00000
  70
    32
  0
VERTEX
  8
UKRYTE__ISO_
  5
BA0
 10
240.220
 20
185.781
 30
0.00000
  70
    32
  0
VERTEX
  8
UKRYTE__ISO_
  5
BA1
 10
240.290
 20
185.753
 30
0.00000
  70
    32
  0
VERTEX
  8
UKRYTE__ISO_
  5
BA2
 10
240.359
 20
185.733
 30
0.00000
  70
    32
  0
VERTEX
  8
UKRYTE__ISO_
  5
BA3
 10
240.429
 20
185.721
 30
0.00000
  70
    32
  0
VERTEX
  8
UKRYTE__ISO_
  5
BA4
 10
240.500
 20
185.717
 30
0.00000
  70
    32
  0
VERTEX
  8
UKRYTE__ISO_
  5
BA5
 10
240.570
 20
185.721
 30
0.00000
  70
    32
  0
VERTEX
  8
UKRYTE__ISO_
  5
BA6
 10
240.640
 20
185.733
 30
0.00000
  70
    32
  0
VERTEX
  8
UKRYTE__ISO_
  5
BA7
 10
240.709
 20
185.753
 30
0.00000
  70
    32
  0
VERTEX
  8
UKRYTE__ISO_
  5
BA8
 10
240.779
 20
185.781
 30
0.00000
  70
    32
  0
VERTEX
  8
UKRYTE__ISO_
  5
BA9
 10
240.847
 20
185.816
 30
0.00000
  70
    32
  0
VERTEX
  8
UKRYTE__ISO_
  5
BAA
 10
240.915
 20
185.860
 30
0.00000
  70
    32
  0
VERTEX
  8
UKRYTE__ISO_
  5
BAB
 10
240.982
 20
185.911
 30
0.00000
  70
    32
  0
VERTEX
  8
UKRYTE__ISO_
  5
BAC
 10
241.047
 20
185.970
 30
0.00000
  70
    32
  0
VERTEX
  8
UKRYTE__ISO_
  5
BAD
 10
241.111
 20
186.036
 30
0.00000
  70
    32
  0
VERTEX
  8
UKRYTE__ISO_
  5
BAE
 10
241.174
 20
186.109
 30
0.00000
  70
    32
  0
VERTEX
  8
UKRYTE__ISO_
  5
BAF
 10
241.235
 20
186.190
 30
0.00000
  70
    32
  0
VERTEX
  8
UKRYTE__ISO_
  5
BB0
 10
241.294
 20
186.277
 30
0.00000
  70
    32
  0
VERTEX
  8
UKRYTE__ISO_
  5
BB1
 10
241.352
 20
186.371
 30
0.00000
  70
    32
  0
VERTEX
  8
UKRYTE__ISO_
  5
BB2
 10
241.407
 20
186.471
 30
0.00000
  70
    32
  0
VERTEX
  8
UKRYTE__ISO_
  5
BB3
 10
241.460
 20
186.578
 30
0.00000
  70
    32
  0
VERTEX
  8
UKRYTE__ISO_
  5
BB4
 10
241.511
 20
186.690
 30
0.00000
  70
    32
  0
VERTEX
  8
UKRYTE__ISO_
  5
BB5
 10
241.560
 20
186.808
 30
0.00000
  70
    32
  0
VERTEX
  8
UKRYTE__ISO_
  5
BB6
 10
241.605
 20
186.932
 30
0.00000
  70
    32
  0
VERTEX
  8
UKRYTE__ISO_
  5
BB7
 10
241.649
 20
187.060
 30
0.00000
  70
    32
  0
VERTEX
  8
UKRYTE__ISO_
  5
BB8
 10
241.689
 20
187.194
 30
0.00000
  70
    32
  0
VERTEX
  8
UKRYTE__ISO_
  5
BB9
 10
241.727
 20
187.332
 30
0.00000
  70
    32
  0
VERTEX
  8
UKRYTE__ISO_
  5
BBA
 10
241.761
 20
187.474
 30
0.00000
  70
    32
  0
VERTEX
  8
UKRYTE__ISO_
  5
BBB
 10
241.793
 20
187.619
 30
0.00000
  70
    32
  0
VERTEX
  8
UKRYTE__ISO_
  5
BBC
 10
241.821
 20
187.768
 30
0.00000
  70
    32
  0
VERTEX
  8
UKRYTE__ISO_
  5
BBD
 10
241.847
 20
187.921
 30
0.00000
  70
    32
  0
VERTEX
  8
UKRYTE__ISO_
  5
BBE
 10
241.869
 20
188.076
 30
0.00000
  70
    32
  0
VERTEX
  8
UKRYTE__ISO_
  5
BBF
 10
241.887
 20
188.233
 30
0.00000
  70
    32
  0
VERTEX
  8
UKRYTE__ISO_
  5
BC0
 10
241.903
 20
188.392
 30
0.00000
  70
    32
  0
VERTEX
  8
UKRYTE__ISO_
  5
BC1
 10
241.915
 20
188.553
 30
0.00000
  70
    32
  0
VERTEX
  8
UKRYTE__ISO_
  5
BC2
 10
241.923
 20
188.715
 30
0.00000
  70
    32
  0
VERTEX
  8
UKRYTE__ISO_
  5
BC3
 10
241.929
 20
188.877
 30
0.00000
  70
    32
  0
VERTEX
  8
UKRYTE__ISO_
  5
BC4
 10
241.930
 20
189.040
 30
0.00000
  70
    32
  0
VERTEX
  8
UKRYTE__ISO_
  5
BC5
 10
241.929
 20
189.203
 30
0.00000
  70
    32
  0
VERTEX
  8
UKRYTE__ISO_
  5
BC6
 10
241.923
 20
189.366
 30
0.00000
  70
    32
  0
VERTEX
  8
UKRYTE__ISO_
  5
BC7
 10
241.915
 20
189.528
 30
0.00000
  70
    32
  0
VERTEX
  8
UKRYTE__ISO_
  5
BC8
 10
241.903
 20
189.689
 30
0.00000
  70
    32
  0
VERTEX
  8
UKRYTE__ISO_
  5
BC9
 10
241.887
 20
189.848
 30
0.00000
  70
    32
  0
VERTEX
  8
UKRYTE__ISO_
  5
BCA
 10
241.869
 20
190.005
 30
0.00000
  70
    32
  0
VERTEX
  8
UKRYTE__ISO_
  5
BCB
 10
241.847
 20
190.160
 30
0.00000
  70
    32
  0
VERTEX
  8
UKRYTE__ISO_
  5
BCC
 10
241.821
 20
190.312
 30
0.00000
  70
    32
  0
VERTEX
  8
UKRYTE__ISO_
  5
BCD
 10
241.793
 20
190.461
 30
0.00000
  70
    32
  0
VERTEX
  8
UKRYTE__ISO_
  5
BCE
 10
241.761
 20
190.607
 30
0.00000
  70
    32
  0
VERTEX
  8
UKRYTE__ISO_
  5
BCF
 10
241.727
 20
190.749
 30
0.00000
  70
    32
  0
VERTEX
  8
UKRYTE__ISO_
  5
BD0
 10
241.689
 20
190.887
 30
0.00000
  70
    32
  0
VERTEX
  8
UKRYTE__ISO_
  5
BD1
 10
241.649
 20
191.020
 30
0.00000
  70
    32
  0
VERTEX
  8
UKRYTE__ISO_
  5
BD2
 10
241.605
 20
191.149
 30
0.00000
  70
    32
  0
VERTEX
  8
UKRYTE__ISO_
  5
BD3
 10
241.560
 20
191.272
 30
0.00000
  70
    32
  0
VERTEX
  8
UKRYTE__ISO_
  5
BD4
 10
241.511
 20
191.390
 30
0.00000
  70
    32
  0
VERTEX
  8
UKRYTE__ISO_
  5
BD5
 10
241.460
 20
191.503
 30
0.00000
  70
    32
  0
VERTEX
  8
UKRYTE__ISO_
  5
BD6
 10
241.407
 20
191.609
 30
0.00000
  70
    32
  0
VERTEX
  8
UKRYTE__ISO_
  5
BD7
 10
241.352
 20
191.710
 30
0.00000
  70
    32
  0
VERTEX
  8
UKRYTE__ISO_
  5
BD8
 10
241.294
 20
191.804
 30
0.00000
  70
    32
  0
VERTEX
  8
UKRYTE__ISO_
  5
BD9
 10
241.235
 20
191.891
 30
0.00000
  70
    32
  0
VERTEX
  8
UKRYTE__ISO_
  5
BDA
 10
241.174
 20
191.971
 30
0.00000
  70
    32
  0
VERTEX
  8
UKRYTE__ISO_
  5
BDB
 10
241.111
 20
192.045
 30
0.00000
  70
    32
  0
VERTEX
  8
UKRYTE__ISO_
  5
BDC
 10
241.047
 20
192.111
 30
0.00000
  70
    32
  0
VERTEX
  8
UKRYTE__ISO_
  5
BDD
 10
240.982
 20
192.170
 30
0.00000
  70
    32
  0
VERTEX
  8
UKRYTE__ISO_
  5
BDE
 10
240.915
 20
192.221
 30
0.00000
  70
    32
  0
VERTEX
  8
UKRYTE__ISO_
  5
BDF
 10
240.847
 20
192.264
 30
0.00000
  70
    32
  0
VERTEX
  8
UKRYTE__ISO_
  5
BE0
 10
240.779
 20
192.300
 30
0.00000
  70
    32
  0
VERTEX
  8
UKRYTE__ISO_
  5
BE1
 10
240.709
 20
192.328
 30
0.00000
  70
    32
  0
VERTEX
  8
UKRYTE__ISO_
  5
BE2
 10
240.640
 20
192.348
 30
0.00000
  70
    32
  0
VERTEX
  8
UKRYTE__ISO_
  5
BE3
 10
240.570
 20
192.360
 30
0.00000
  70
    32
  0
VERTEX
  8
UKRYTE__ISO_
  5
BE4
 10
240.500
 20
192.364
 30
0.00000
  70
    32
  0
SEQEND
  8
UKRYTE__ISO_
  5
BE5
  0
LINE
  5
162
  8
UKRYTE__ISO_
 10
237.3995529718964974
 20
184.9903026043822081
 30
0.0
 11
237.3995529718964974
 21
193.0903026043822024
 31
0.0
  0
LINE
  5
163
  8
UKRYTE__ISO_
 10
229.3995529718930015
 20
192.3638026043821014
 30
0.0
 11
240.4995529718945875
 21
192.3638026043821014
 31
0.0
  0
LINE
  5
164
  8
UKRYTE__ISO_
 10
229.3995529718930015
 20
185.7168026043821101
 30
0.0
 11
240.4995529718945875
 21
185.7168026043821101
 31
0.0
  0
LINE
  5
165
  8
UKRYTE__ISO_
 10
229.3995529718903867
 20
193.1903026043821114
 30
0.0
 11
232.8995529718905004
 21
193.1903026043821114
 31
0.0
  0
LINE
  5
166
  8
UKRYTE__ISO_
 10
229.3995529718903867
 20
184.8903026043822138
 30
0.0
 11
232.8995529718905004
 21
184.8903026043822138
 31
0.0
  0
LINE
  5
167
  8
WIDOCZNE__ISO_
 10
232.8995529718881983
 20
193.0903026043822024
 30
0.0
 11
232.8995529718881983
 21
195.790302604382191
 31
0.0
  0
LINE
  5
168
  8
WIDOCZNE__ISO_
 10
243.599552971892706
 20
193.0903026043822024
 30
0.0
 11
236.8995529718926036
 21
193.0903026043822024
 31
0.0
  0
LINE
  5
169
  8
WIDOCZNE__ISO_
 10
232.8995529718881983
 20
182.290302604382191
 30
0.0
 11
232.8995529718881983
 21
184.9903026043822081
 31
0.0
  0
LINE
  5
16A
  8
WIDOCZNE__ISO_
 10
232.8995529718881983
 20
184.9903026043822081
 30
0.0
 11
236.8995529718881983
 21
184.9903026043822081
 31
0.0
  0
LINE
  5
16B
  8
WIDOCZNE__ISO_
 10
236.8995529718926036
 20
184.9903026043822081
 30
0.0
 11
243.599552971892706
 21
184.9903026043822081
 31
0.0
  0
LINE
  5
16C
  8
WIDOCZNE__ISO_
 10
236.8995529718881983
 20
193.0903026043822024
 30
0.0
 11
232.8995529718881983
 21
193.0903026043822024
 31
0.0
  0
LINE
  5
16D
  8
WIDOCZNE__ISO_
 10
232.8995529718881983
 20
195.790302604382191
 30
0.0
 11
229.3995529718881983
 21
195.790302604382191
 31
0.0
  0
LINE
  5
16E
  8
WIDOCZNE__ISO_
 10
236.8995529718881983
 20
184.9903026043822081
 30
0.0
 11
236.8995529718881983
 21
193.0903026043822024
 31
0.0
  0
LINE
  5
16F
  8
WIDOCZNE__ISO_
 10
229.3995529718881983
 20
182.290302604382191
 30
0.0
 11
229.3995529718881983
 21
195.790302604382191
 31
0.0
  0
LINE
  5
170
  8
WIDOCZNE__ISO_
 10
229.3995529718881983
 20
182.290302604382191
 30
0.0
 11
232.8995529718881983
 21
182.290302604382191
 31
0.0
  0
LINE
  5
171
  8
WIDOCZNE__ISO_
 10
243.599552971892706
 20
184.9903026043822081
 30
0.0
 11
243.599552971892706
 21
193.0903026043822024
 31
0.0
  0
DIMENSION
  5
172
  8
WYMIAR__ISO_
  2
*D3
 10
194.0372897881819938
 20
157.4936834690074079
 30
0.0
 11
180.0372897881819938
 21
157.4936834690074079
 31
0.0
 70
   128
  1
<>
 13
166.0372897881819938
 23
195.790302604382191
 33
0.0
 14
194.0372897881819938
 24
195.790302604382191
 34
0.0
 50
180.0
1001
ACAD
1000
DSTYLE
1002
{
1070
   287
1070
     1
1070
   172
1070
     0
1070
   289
1070
     1
1070
    74
1070
     0
1070
   271
1070
     2
1070
   147
1040
0.762
1070
    72
1070
     0
1070
    71
1070
     0
1070
   272
1070
     2
1070
    48
1040
0.0
1070
    47
1040
0.0
1002
}
  0
DIMENSION
  5
262
  8
WYMIAR__ISO_
  2
*D4
 10
156.0372897881819938
 20
125.5569910391479027
 30
0.0
 11
156.0372897881819938
 21
121.8069910391474053
 31
0.0
 70
   128
  1
<>
 13
166.0372897881819938
 23
118.0569910391469932
 33
0.0
 14
166.0372897881819938
 24
125.5569910391479027
 34
0.0
 50
90.0
1001
ACAD
1000
DSTYLE
1002
{
1070
   287
1070
     1
1070
   172
1070
     0
1070
   289
1070
     1
1070
    74
1070
     0
1070
   271
1070
     2
1070
   147
1040
0.762
1070
    72
1070
     0
1070
    71
1070
     0
1070
   272
1070
     2
1070
    48
1040
0.0
1070
    47
1040
0.0
1002
}
  0
DIMENSION
  5
35A
  8
WYMIAR__ISO_
  2
*D5
 10
166.0372897881819938
 20
101.6277520778773038
 30
0.0
 11
173.5372897881819938
 21
101.6277520778773038
 31
0.0
 70
   128
  1
<>
 13
181.0372897881819938
 23
111.3569910391470046
 33
0.0
 14
166.0372897881819938
 24
118.0569910391469932
 34
0.0
 50
180.0
1001
ACAD
1000
DSTYLE
1002
{
1070
   287
1070
     1
1070
   172
1070
     0
1070
   289
1070
     1
1070
    74
1070
     0
1070
   271
1070
     2
1070
   147
1040
0.762
1070
    72
1070
     0
1070
    71
1070
     0
1070
   272
1070
     2
1070
    48
1040
0.0
1070
    47
1040
0.0
1002
}
  0
DIMENSION
  5
447
  8
WYMIAR__ISO_
  2
*D6
 10
229.3995529718881983
 20
157.0902086456092945
 30
0.0
 11
236.4995529718904095
 21
157.0902086456092945
 31
0.0
 70
   128
  1
<>
 13
243.5995529718925923
 23
184.9903026043822081
 33
0.0
 14
229.3995529718881983
 24
182.290302604382191
 34
0.0
1001
ACAD
1000
DSTYLE
1002
{
1070
   287
1070
     1
1070
   172
1070
     0
1070
   289
1070
     1
1070
    74
1070
     0
1070
   271
1070
     2
1070
   147
1040
0.762
1070
    72
1070
     0
1070
    71
1070
     0
1070
   272
1070
     2
1070
    48
1040
0.0
1070
    47
1040
0.0
1002
}
  0
LINE
  5
534
  8
ZNACZNIK_śRODKA__ISO_
  6
CHAIN
 10
178.5372897881819938
 20
189.040302604382191
 30
0.0
 11
166.8872897881819881
 21
189.040302604382191
 31
0.0
  0
LINE
  5
535
  8
ZNACZNIK_śRODKA__ISO_
  6
CHAIN
 10
173.5372897881819938
 20
194.040302604382191
 30
0.0
 11
173.5372897881819938
 21
184.040302604382191
 31
0.0
  0
LINE
  5
536
  8
LINIA_śRODKOWA__ISO_
  6
CHAIN
 10
173.5372897881819938
 20
128.0569910391459132
 30
0.0
 11
173.5372897881819938
 21
115.5569910391457995
 31
0.0
  0
LINE
  5
537
  8
LINIA_śRODKOWA__ISO_
  6
CHAIN
 10
181.1672623221317053
 20
127.8135002421545039
 30
0.0
 11
188.6134711003861923
 21
112.2004818361372998
 31
0.0
  0
DIMENSION
  5
538
  8
WYMIAR__ISO_
  2
*D7
 10
177.6872897881819995
 20
169.795396427050207
 30
0.0
 11
186.039330745504401
 21
169.795396427050207
 31
0.0
 70
   128
  1
\fRoboto|b0|i0;\U+00D8<>
 13
169.3872897881819881
 23
189.040302604382191
 33
0.0
 14
177.6872897881819995
 24
189.040302604382191
 34
0.0
 50
180.0
1001
ACAD
1000
DSTYLE
1002
{
1070
   287
1070
     2
1070
   172
1070
     0
1070
   289
1070
     2
1070
    74
1070
     0
1070
   271
1070
     2
1070
   147
1040
0.762
1070
    72
1070
     0
1070
    71
1070
     0
1070
   272
1070
     2
1070
    48
1040
0.0
1070
    47
1040
0.0
1002
}
  0
INSERT
  5
652
  8
SYMBOL__ISO_
  2
UWAGA_DOTYCZąCA_GWINTU_ZEW
 10
0.0
 20
0.0
 30
0.0
  0
DIMENSION
  5
653
  8
WYMIAR__ISO_
  2
*D9
 10
253.5995529718925923
 20
193.0903026043822877
 30
0.0
 11
253.5995529718925923
 21
178.519969271048808
 31
0.0
 70
   128
  1
<>
 13
243.5995529718925923
 23
184.9903026043822081
 33
0.0
 14
243.5995529718925923
 24
193.0903026043822024
 34
0.0
 50
270.0
1001
ACAD
1000
DSTYLE
1002
{
1070
   287
1070
     2
1070
   172
1070
     0
1070
   289
1070
     2
1070
    74
1070
     0
1070
   271
1070
     2
1070
   147
1040
0.762
1070
    72
1070
     0
1070
    71
1070
     0
1070
   272
1070
     2
1070
    48
1040
0.0
1070
    47
1040
0.0
1002
}
  0
DIMENSION
  5
761
  8
WYMIAR__ISO_
  2
*D10
 10
219.3995529718881983
 20
195.7903026043823047
 30
0.0
 11
219.3995529718881983
 21
189.040302604382191
 31
0.0
 70
   128
  1
<>
 13
229.3995529718881983
 23
182.290302604382191
 33
0.0
 14
229.3995529718881983
 24
195.790302604382191
 34
0.0
 50
270.0
1001
ACAD
1000
DSTYLE
1002
{
1070
   287
1070
     1
1070
   172
1070
     0
1070
   289
1070
     1
1070
    74
1070
     0
1070
   271
1070
     2
1070
   147
1040
0.762
1070
    72
1070
     0
1070
    71
1070
     0
1070
   272
1070
     2
1070
    48
1040
0.0
1070
    47
1040
0.0
1002
}
  0
DIMENSION
  5
855
  8
WYMIAR__ISO_
  2
*D11
 10
232.8995529718881983
 20
169.795396427050207
 30
0.0
 11
219.8458863052215122
 21
169.795396427050207
 31
0.0
 70
   128
  1
<>
 13
229.3995529718881983
 23
182.290302604382191
 33
0.0
 14
232.8995529718881983
 24
193.0903026043822024
 34
0.0
1001
ACAD
1000
DSTYLE
1002
{
1070
   287
1070
     1
1070
   172
1070
     1
1070
   289
1070
     1
1070
    74
1070
     0
1070
   271
1070
     2
1070
   147
1040
0.762
1070
    72
1070
     0
1070
    71
1070
     0
1070
   272
1070
     2
1070
    48
1040
0.0
1070
    47
1040
0.0
1002
}
  0
ENDSEC
  0
EOF
