  0
SECTION
  2
HEADER
  9
$ACADVER
  1
AC1009
  9
$INSBASE
 10
0.0
 20
0.0
 30
0.0
  9
$EXTMIN
 10
0.0
 20
0.0
 30
0.0
  9
$EXTMAX
 10
420.0
 20
297.0
 30
0.0
  9
$LIMMIN
 10
0.0
 20
0.0
  9
$LIMMAX
 10
420.0
 20
297.0
  9
$ORTHOMODE
 70
     0
  9
$REGENMODE
 70
     1
  9
$FILLMODE
 70
     1
  9
$QTEXTMODE
 70
     0
  9
$MIRRTEXT
 70
     0
  9
$DRAGMODE
 70
     2
  9
$LTSCALE
 40
1.0
  9
$OSMODE
 70
     0
  9
$ATTMODE
 70
     1
  9
$TEXTSIZE
 40
0.2
  9
$TRACEWID
 40
0.05
  9
$TEXTSTYLE
  7
STANDARD
  9
$CLAYER
  8
0
  9
$CELTYPE
  6
BYLAYER
  9
$CECOLOR
 62
   256
  9
$DIMSCALE
 40
1.0
  9
$DIMASZ
 40
0.18
  9
$DIMEXO
 40
0.0625
  9
$DIMDLI
 40
0.38
  9
$DIMRND
 40
0.0
  9
$DIMDLE
 40
0.0
  9
$DIMEXE
 40
0.18
  9
$DIMTP
 40
0.0
  9
$DIMTM
 40
0.0
  9
$DIMTXT
 40
0.18
  9
$DIMCEN
 40
0.09
  9
$DIMTSZ
 40
0.0
  9
$DIMTOL
 70
     0
  9
$DIMLIM
 70
     0
  9
$DIMTIH
 70
     1
  9
$DIMTOH
 70
     1
  9
$DIMSE1
 70
     0
  9
$DIMSE2
 70
     0
  9
$DIMTAD
 70
     0
  9
$DIMZIN
 70
     0
  9
$DIMBLK
  1

  9
$DIMASO
 70
     1
  9
$DIMSHO
 70
     1
  9
$DIMPOST
  1

  9
$DIMAPOST
  1

  9
$DIMALT
 70
     0
  9
$DIMALTD
 70
     2
  9
$DIMALTF
 40
25.3999999999999986
  9
$DIMLFAC
 40
1.0
  9
$DIMTOFL
 70
     0
  9
$DIMTVP
 40
0.0
  9
$DIMTIX
 70
     0
  9
$DIMSOXD
 70
     0
  9
$DIMSAH
 70
     0
  9
$DIMBLK1
  1

  9
$DIMBLK2
  1

  9
$DIMSTYLE
  2
STANDARD
  9
$DIMCLRD
 70
     0
  9
$DIMCLRE
 70
     0
  9
$DIMCLRT
 70
     0
  9
$DIMTFAC
 40
1.0
  9
$DIMGAP
 40
0.09
  9
$LUNITS
 70
     2
  9
$LUPREC
 70
     4
  9
$SKETCHINC
 40
0.1
  9
$FILLETRAD
 40
0.0
  9
$AUNITS
 70
     0
  9
$AUPREC
 70
     0
  9
$MENU
  1
.
  9
$ELEVATION
 40
0.0
  9
$PELEVATION
 40
0.0
  9
$THICKNESS
 40
0.0
  9
$LIMCHECK
 70
     0
  9
$BLIPMODE
 70
     0
  9
$CHAMFERA
 40
0.0
  9
$CHAMFERB
 40
0.0
  9
$SKPOLY
 70
     0
  9
$TDCREATE
 40
2459474.4533333331346512
  9
$TDUPDATE
 40
2459474.4533333331346512
  9
$TDINDWG
 40
0.0000347222
  9
$TDUSRTIMER
 40
0.0000347222
  9
$USRTIMER
 70
     1
  9
$ANGBASE
 50
0.0
  9
$ANGDIR
 70
     0
  9
$PDMODE
 70
     0
  9
$PDSIZE
 40
0.0
  9
$PLINEWID
 40
0.0
  9
$COORDS
 70
     0
  9
$SPLFRAME
 70
     0
  9
$SPLINETYPE
 70
     6
  9
$SPLINESEGS
 70
     8
  9
$ATTDIA
 70
     1
  9
$ATTREQ
 70
     1
  9
$HANDLING
 70
     1
  9
$HANDSEED
  5
CE4
  9
$SURFTAB1
 70
     6
  9
$SURFTAB2
 70
     6
  9
$SURFTYPE
 70
     6
  9
$SURFU
 70
     6
  9
$SURFV
 70
     6
  9
$UCSNAME
  2

  9
$UCSORG
 10
0.0
 20
0.0
 30
0.0
  9
$UCSXDIR
 10
1.0
 20
0.0
 30
0.0
  9
$UCSYDIR
 10
0.0
 20
1.0
 30
0.0
  9
$PUCSNAME
  2

  9
$PUCSORG
 10
0.0
 20
0.0
 30
0.0
  9
$PUCSXDIR
 10
1.0
 20
0.0
 30
0.0
  9
$PUCSYDIR
 10
0.0
 20
1.0
 30
0.0
  9
$USERI1
 70
     0
  9
$USERI2
 70
     0
  9
$USERI3
 70
     0
  9
$USERI4
 70
     0
  9
$USERI5
 70
     0
  9
$USERR1
 40
0.0
  9
$USERR2
 40
0.0
  9
$USERR3
 40
0.0
  9
$USERR4
 40
0.0
  9
$USERR5
 40
0.0
  9
$WORLDVIEW
 70
     1
  9
$SHADEDGE
 70
     3
  9
$SHADEDIF
 70
    70
  9
$TILEMODE
 70
     1
  9
$MAXACTVP
 70
    64
  9
$PLIMCHECK
 70
     0
  9
$PEXTMIN
 10
0.0
 20
0.0
 30
0.0
  9
$PEXTMAX
 10
420.0
 20
297.0
 30
0.0
  9
$PLIMMIN
 10
0.0
 20
0.0
  9
$PLIMMAX
 10
420.0
 20
297.0
  9
$UNITMODE
 70
     0
  9
$VISRETAIN
 70
     1
  9
$PLINEGEN
 70
     0
  9
$PSLTSCALE
 70
     1
  0
ENDSEC
  0
SECTION
  2
TABLES
  0
TABLE
  2
VPORT
 70
     1
  0
VPORT
  2
*ACTIVE
 70
     0
 10
0.0
 20
0.0
 11
1.0
 21
1.0
 12
210.0
 22
148.5
 13
0.0
 23
0.0
 14
1.0
 24
1.0
 15
0.0
 25
0.0
 16
0.0
 26
0.0
 36
1.0
 17
0.0
 27
0.0
 37
0.0
 40
297.0
 41
1.4141414141414139
 42
50.0
 43
0.0
 44
0.0
 50
0.0
 51
0.0
 71
     0
 72
   100
 73
     1
 74
     1
 75
     0
 76
     0
 77
     0
 78
     0
  0
ENDTAB
  0
TABLE
  2
LTYPE
 70
    59
  0
LTYPE
  2
CONTINUOUS
 70
     0
  3
Solid line
 72
    65
 73
     0
 40
0.0
  0
LTYPE
  2
SECTION_VIEW_LINES
 70
     0
  3
Section View Lines
 72
    65
 73
     4
 40
0.8406
 49
0.6614
 49
-0.0827
 49
0.0138
 49
-0.0827
  0
LTYPE
  2
CHAIN
 70
     0
  3
Chain ____ _ ____ _ ____ _ ____ _ ____ _ ____
 72
    65
 73
     4
 40
0.3543
 49
0.2362
 49
-0.0295
 49
0.0591
 49
-0.0295
  0
LTYPE
  2
DASH_DOT
 70
     0
  3
Dash dot _._._._._._._._._._._._._._._.
 72
    65
 73
     4
 40
0.182
 49
0.1181
 49
-0.0295
 49
0.0049
 49
-0.0295
  0
LTYPE
  2
DASH_DOUBLE_DOT
 70
     0
  3
Dash Double Dot __ __ . __ __ . __ __ . __ _
 72
    65
 73
     6
 40
0.2164
 49
0.1181
 49
-0.0295
 49
0.0049
 49
-0.0295
 49
0.0049
 49
-0.0295
  0
LTYPE
  2
DASH_TRIPLE_DOT
 70
     0
  3
Dash Triple-Dot _ . . . _ . . . _ . . . _
 72
    65
 73
     8
 40
0.2508
 49
0.1181
 49
-0.0295
 49
0.0049
 49
-0.0295
 49
0.0049
 49
-0.0295
 49
0.0049
 49
-0.0295
  0
LTYPE
  2
DASHED
 70
     0
  3
Dashed __ __ __ __ __ __ __ __ __ __ __ __ __ _
 72
    65
 73
     2
 40
0.2068
 49
0.1655
 49
-0.0413
  0
LTYPE
  2
DASHED_SPACE
 70
     0
  3
Dashed Space __ __ __ __ __ __ __ __ __ __ __ _
 72
    65
 73
     2
 40
0.2067
 49
0.1654
 49
-0.0413
  0
LTYPE
  2
DOTTED
 70
     0
  3
Dotted . . . . . . . . . . . . . . . . . . . . 
 72
    65
 73
     2
 40
0.0481
 49
0.0068
 49
-0.0413
  0
LTYPE
  2
DOUBLE_DASH_CHAIN
 70
     0
  3
Double Dash Chain ___ _ _ ___ _ _ ___ _ _ ___ _
 72
    65
 73
     6
 40
1.2402999999999991
 49
0.6614
 49
-0.0827
 49
0.1654
 49
-0.0827
 49
0.1654
 49
-0.0827
  0
LTYPE
  2
DOUBLE_DASH_DOT
 70
     0
  3
Double Dash Dot __ __ . __ __ . __ __ . __ _
 72
    65
 73
     6
 40
0.3296
 49
0.1181
 49
-0.0295
 49
0.1181
 49
-0.0295
 49
0.0049
 49
-0.0295
  0
LTYPE
  2
DOUBLE_DASH_DOUBLE_DOT
 70
     0
  3
Double Dash Double Dot _ _ . . _ _ . . _ _
 72
    65
 73
     8
 40
0.364
 49
0.1181
 49
-0.0295
 49
0.1181
 49
-0.0295
 49
0.0049
 49
-0.0295
 49
0.0049
 49
-0.0295
  0
LTYPE
  2
DOUBLE_DASH_TRIPLE_DOT
 70
     0
  3
Double Dash Triple Dot __ __ . . . __ __ . . .
 72
    65
 73
    10
 40
0.3984
 49
0.1181
 49
-0.0295
 49
0.1181
 49
-0.0295
 49
0.0049
 49
-0.0295
 49
0.0049
 49
-0.0295
 49
0.0049
 49
-0.0295
  0
LTYPE
  2
LONG_DASH_DOTTED
 70
     0
  3
Long Dash Dotted ____ . ____ . ____ . ____ . _
 72
    65
 73
     4
 40
0.3001
 49
0.2362
 49
-0.0295
 49
0.0049
 49
-0.0295
  0
LTYPE
  2
LONG_DASH_DOUBLE_DOT
 70
     0
  3
Long Dash Double Dot ____ . . ____ . . ____ . .
 72
    65
 73
     6
 40
0.3345
 49
0.2362
 49
-0.0295
 49
0.0049
 49
-0.0295
 49
0.0049
 49
-0.0295
  0
LTYPE
  2
LONG_DASH_TRIPLE_DOT
 70
     0
  3
Long Dash Triple Dot ____ ... ____ ... ____
 72
    65
 73
     8
 40
0.3689
 49
0.2362
 49
-0.0295
 49
0.0049
 49
-0.0295
 49
0.0049
 49
-0.0295
 49
0.0049
 49
-0.0295
  0
LTYPE
  2
BORDER
 70
     0
  3
Border __ __ . __ __ . __ __ . __ __ . __ __ .
 72
    65
 73
     6
 40
44.4500000000000028
 49
12.6999999999999993
 49
-6.3499999999999988
 49
12.6999999999999993
 49
-6.3499999999999988
 49
0.0
 49
-6.3499999999999988
  0
LTYPE
  2
BORDER2
 70
     0
  3
Border (.5x) __.__.__.__.__.__.__.__.__.__.__.
 72
    65
 73
     6
 40
22.2250000000000014
 49
6.3499999999999988
 49
-3.1749999999999989
 49
6.3499999999999988
 49
-3.1749999999999989
 49
0.0
 49
-3.1749999999999989
  0
LTYPE
  2
BORDERX2
 70
     0
  3
Border (2x) ____  ____  .  ____  ____  .  ___
 72
    65
 73
     6
 40
88.9000000000000057
 49
25.3999999999999986
 49
-12.6999999999999993
 49
25.3999999999999986
 49
-12.6999999999999993
 49
0.0
 49
-12.6999999999999993
  0
LTYPE
  2
CENTER
 70
     0
  3
Center ____ _ ____ _ ____ _ ____ _ ____ _ ____
 72
    65
 73
     4
 40
50.7999999999999972
 49
31.75
 49
-6.3499999999999988
 49
6.3499999999999988
 49
-6.3499999999999988
  0
LTYPE
  2
CENTER2
 70
     0
  3
Center (.5x) ___ _ ___ _ ___ _ ___ _ ___ _ ___
 72
    65
 73
     4
 40
28.5749999999999993
 49
19.0500000000000007
 49
-3.1749999999999989
 49
3.1749999999999989
 49
-3.1749999999999989
  0
LTYPE
  2
CENTERX2
 70
     0
  3
Center (2x) ________  __  ________  __  _____
 72
    65
 73
     4
 40
101.5999999999999943
 49
63.5
 49
-12.6999999999999993
 49
12.6999999999999993
 49
-12.6999999999999993
  0
LTYPE
  2
DASHDOT2
 70
     0
  3
Dash dot (.5x) _._._._._._._._._._._._._._._.
 72
    65
 73
     4
 40
12.6999999999999993
 49
6.3499999999999988
 49
-3.1749999999999989
 49
0.0
 49
-3.1749999999999989
  0
LTYPE
  2
DASHDOTX2
 70
     0
  3
Dash dot (2x) ____  .  ____  .  ____  .  ___
 72
    65
 73
     4
 40
50.7999999999999972
 49
25.3999999999999986
 49
-12.6999999999999993
 49
0.0
 49
-12.6999999999999993
  0
LTYPE
  2
DASHED2
 70
     0
  3
Dashed (.5x) _ _ _ _ _ _ _ _ _ _ _ _ _ _ _ _ _
 72
    65
 73
     2
 40
9.5249999999999986
 49
6.3499999999999988
 49
-3.1749999999999989
  0
LTYPE
  2
DASHEDX2
 70
     0
  3
Dashed (2x) ____  ____  ____  ____  ____  ___
 72
    65
 73
     2
 40
38.1000000000000014
 49
25.3999999999999986
 49
-12.6999999999999993
  0
LTYPE
  2
DIVIDE
 70
     0
  3
Divide ____ . . ____ . . ____ . . ____ . . ____
 72
    65
 73
     6
 40
31.75
 49
12.6999999999999993
 49
-6.3499999999999988
 49
0.0
 49
-6.3499999999999988
 49
0.0
 49
-6.3499999999999988
  0
LTYPE
  2
DIVIDE2
 70
     0
  3
Divide (.5x) __..__..__..__..__..__..__..__.._
 72
    65
 73
     6
 40
15.875
 49
6.3499999999999988
 49
-3.1749999999999989
 49
0.0
 49
-3.1749999999999989
 49
0.0
 49
-3.1749999999999989
  0
LTYPE
  2
DIVIDEX2
 70
     0
  3
Divide (2x) ________  .  .  ________  .  .  _
 72
    65
 73
     6
 40
63.4999999999999929
 49
25.3999999999999986
 49
-12.6999999999999993
 49
0.0
 49
-12.6999999999999993
 49
0.0
 49
-12.6999999999999993
  0
LTYPE
  2
DOT
 70
     0
  3
Dot . . . . . . . . . . . . . . . . . . . . . .
 72
    65
 73
     2
 40
6.3499999999999988
 49
0.0
 49
-6.3499999999999988
  0
LTYPE
  2
DOT2
 70
     0
  3
Dot (.5x) .....................................
 72
    65
 73
     2
 40
3.1749999999999989
 49
0.0
 49
-3.1749999999999989
  0
LTYPE
  2
DOTX2
 70
     0
  3
Dot (2x) .  .  .  .  .  .  .  .  .  .  .  .  . 
 72
    65
 73
     2
 40
12.6999999999999993
 49
0.0
 49
-12.6999999999999993
  0
LTYPE
  2
HIDDEN
 70
     0
  3
Hidden __ __ __ __ __ __ __ __ __ __ __ __ __ _
 72
    65
 73
     2
 40
9.5249999999999986
 49
6.3499999999999988
 49
-3.1749999999999989
  0
LTYPE
  2
HIDDEN2
 70
     0
  3
Hidden (.5x) _ _ _ _ _ _ _ _ _ _ _ _ _ _ _ _ _
 72
    65
 73
     2
 40
4.7624999999999993
 49
3.1749999999999989
 49
-1.587499999999999
  0
LTYPE
  2
HIDDENX2
 70
     0
  3
Hidden (2x) ____ ____ ____ ____ ____ ____ ____
 72
    65
 73
     2
 40
19.0500000000000007
 49
12.6999999999999993
 49
-6.3499999999999988
  0
LTYPE
  2
PHANTOM
 70
     0
  3
Phantom ______  __  __  ______  __  __  ______
 72
    65
 73
     6
 40
63.5
 49
31.75
 49
-6.3499999999999988
 49
6.3499999999999988
 49
-6.3499999999999988
 49
6.3499999999999988
 49
-6.3499999999999988
  0
LTYPE
  2
PHANTOM2
 70
     0
  3
Phantom (.5x) ___ _ _ ___ _ _ ___ _ _ ___ _ _
 72
    65
 73
     6
 40
31.75
 49
15.875
 49
-3.1749999999999989
 49
3.1749999999999989
 49
-3.1749999999999989
 49
3.1749999999999989
 49
-3.1749999999999989
  0
LTYPE
  2
PHANTOMX2
 70
     0
  3
Phantom (2x) ____________    ____    ____   _
 72
    65
 73
     6
 40
127.0
 49
63.5
 49
-12.6999999999999993
 49
12.6999999999999993
 49
-12.6999999999999993
 49
12.6999999999999993
 49
-12.6999999999999993
  0
LTYPE
  2
ACAD_ISO02W100
 70
     0
  3
ISO dash __ __ __ __ __ __ __ __ __ __ __ __ __
 72
    65
 73
     2
 40
15.0
 49
12.0
 49
-3.0
  0
LTYPE
  2
ACAD_ISO03W100
 70
     0
  3
ISO dash space __    __    __    __    __    __
 72
    65
 73
     2
 40
30.0
 49
12.0
 49
-18.0
  0
LTYPE
  2
ACAD_ISO04W100
 70
     0
  3
ISO long-dash dot ____ . ____ . ____ . ____ . _
 72
    65
 73
     4
 40
30.0
 49
24.0
 49
-3.0
 49
0.0
 49
-3.0
  0
LTYPE
  2
ACAD_ISO05W100
 70
     0
  3
ISO long-dash double-dot ____ .. ____ .. ____ .
 72
    65
 73
     6
 40
33.0
 49
24.0
 49
-3.0
 49
0.0
 49
-3.0
 49
0.0
 49
-3.0
  0
LTYPE
  2
ACAD_ISO06W100
 70
     0
  3
ISO long-dash triple-dot ____ ... ____ ... ____
 72
    65
 73
     8
 40
36.0
 49
24.0
 49
-3.0
 49
0.0
 49
-3.0
 49
0.0
 49
-3.0
 49
0.0
 49
-3.0
  0
LTYPE
  2
ACAD_ISO07W100
 70
     0
  3
ISO dot . . . . . . . . . . . . . . . . . . . .
 72
    65
 73
     2
 40
3.0
 49
0.0
 49
-3.0
  0
LTYPE
  2
ACAD_ISO08W100
 70
     0
  3
ISO long-dash short-dash ____ __ ____ __ ____ _
 72
    65
 73
     4
 40
36.0
 49
24.0
 49
-3.0
 49
6.0
 49
-3.0
  0
LTYPE
  2
ACAD_ISO09W100
 70
     0
  3
ISO long-dash double-short-dash ____ __ __ ____
 72
    65
 73
     6
 40
45.0
 49
24.0
 49
-3.0
 49
6.0
 49
-3.0
 49
6.0
 49
-3.0
  0
LTYPE
  2
ACAD_ISO10W100
 70
     0
  3
ISO dash dot __ . __ . __ . __ . __ . __ . __ .
 72
    65
 73
     4
 40
18.0
 49
12.0
 49
-3.0
 49
0.0
 49
-3.0
  0
LTYPE
  2
ACAD_ISO11W100
 70
     0
  3
ISO double-dash dot __ __ . __ __ . __ __ . __ 
 72
    65
 73
     6
 40
33.0
 49
12.0
 49
-3.0
 49
12.0
 49
-3.0
 49
0.0
 49
-3.0
  0
LTYPE
  2
ACAD_ISO12W100
 70
     0
  3
ISO dash double-dot __ . . __ . . __ . . __ . .
 72
    65
 73
     6
 40
21.0
 49
12.0
 49
-3.0
 49
0.0
 49
-3.0
 49
0.0
 49
-3.0
  0
LTYPE
  2
ACAD_ISO13W100
 70
     0
  3
ISO double-dash double-dot __ __ . . __ __ . . 
 72
    65
 73
     8
 40
36.0
 49
12.0
 49
-3.0
 49
12.0
 49
-3.0
 49
0.0
 49
-3.0
 49
0.0
 49
-3.0
  0
LTYPE
  2
ACAD_ISO14W100
 70
     0
  3
ISO dash triple-dot __ . . . __ . . . __ . . . 
 72
    65
 73
     8
 40
24.0
 49
12.0
 49
-3.0
 49
0.0
 49
-3.0
 49
0.0
 49
-3.0
 49
0.0
 49
-3.0
  0
LTYPE
  2
ACAD_ISO15W100
 70
     0
  3
ISO double-dash triple-dot __ __ . . . __ __ . 
 72
    65
 73
    10
 40
39.0
 49
12.0
 49
-3.0
 49
12.0
 49
-3.0
 49
0.0
 49
-3.0
 49
0.0
 49
-3.0
 49
0.0
 49
-3.0
  0
LTYPE
  2
FENCELINE1
 70
     0
  3
Fenceline circle ----0-----0----0-----0----0---
 72
    65
 73
     4
 40
36.8299999999999983
 49
6.3499999999999988
 49
-2.54
 49
-2.54
 49
25.3999999999999986
  0
LTYPE
  2
FENCELINE2
 70
     0
  3
Fenceline square ----[]-----[]----[]-----[]----
 72
    65
 73
     4
 40
36.8299999999999983
 49
6.3499999999999988
 49
-2.54
 49
-2.54
 49
25.3999999999999986
  0
LTYPE
  2
TRACKS
 70
     0
  3
Tracks -|-|-|-|-|-|-|-|-|-|-|-|-|-|-|-|-|-|-|-|
 72
    65
 73
     2
 40
7.6200000000000001
 49
3.8100000000000001
 49
3.8100000000000001
  0
LTYPE
  2
BATTING
 70
     0
  3
Batting SSSSSSSSSSSSSSSSSSSSSSSSSSSSSSSSSSSSSSS
 72
    65
 73
     4
 40
10.1625399999999999
 49
0.00254
 49
-2.54
 49
-5.0800000000000001
 49
-2.54
  0
LTYPE
  2
HOT_WATER_SUPPLY
 70
     0
  3
Hot water supply ---- HW ---- HW ---- HW ----
 72
    65
 73
     3
 40
22.8599999999999994
 49
12.6999999999999993
 49
-5.0800000000000001
 49
-5.0800000000000001
  0
LTYPE
  2
GAS_LINE
 70
     0
  3
Gas line ----GAS----GAS----GAS----GAS----GAS---
 72
    65
 73
     3
 40
24.129999999999999
 49
12.6999999999999993
 49
-5.0800000000000001
 49
-6.3499999999999988
  0
LTYPE
  2
ZIGZAG
 70
     0
  3
Zig zag /\/\/\/\/\/\/\/\/\/\/\/\/\/\/\/\/\/\/\/
 72
    65
 73
     4
 40
20.32254
 49
0.00254
 49
-5.0800000000000001
 49
-10.1600000000000001
 49
-5.0800000000000001
  0
ENDTAB
  0
TABLE
  2
LAYER
 70
    77
  0
LAYER
  2
0
 70
     0
 62
     7
  6
CONTINUOUS
  0
LAYER
  2
WIDOCZNE__ISO_
 70
     0
 62
     7
  6
CONTINUOUS
  0
LAYER
  2
WYMIAR__ISO_
 70
     0
 62
     7
  6
CONTINUOUS
  0
LAYER
  2
ZNACZNIK_śRODKA__ISO_
 70
     0
 62
     7
  6
CONTINUOUS
  0
LAYER
  2
DEFPOINTS
 70
     0
 62
     7
  6
CONTINUOUS
  0
ENDTAB
  0
TABLE
  2
STYLE
 70
    17
  0
STYLE
  2
STANDARD
 70
     0
 40
0.0
 41
1.0
 50
0.0
 71
     0
 42
0.2
  3
txt
  4

  0
STYLE
  2
ANNOTATIVE
 70
     0
 40
0.0
 41
1.0
 50
0.0
 71
     0
 42
0.2
  3
txt
  4

  0
STYLE
  2

 70
     1
 40
0.0
 41
1.0
 50
0.0
 71
     0
 42
0.2
  3
ltypeshp.shx
  4

  0
STYLE
  2
RAZITKO_DATA
 70
     0
 40
0.0
 41
1.0
 50
0.0
 71
     0
 42
0.2
  3
txt.shx
  4
bigfont.shx
  0
STYLE
  2
RAZITKO_POPIS
 70
     0
 40
0.0
 41
1.0
 50
0.0
 71
     0
 42
0.2
  3
txt.shx
  4
bigfont.shx
  0
STYLE
  2
TEKST_ETYKIETY__ISO_
 70
     0
 40
0.0
 41
1.0
 50
0.0
 71
     0
 42
0.2
  3
txt.shx
  4
bigfont.shx
  0
STYLE
  2
TEKST_NOTATKI__ISO_
 70
     0
 40
0.0
 41
1.0
 50
0.0
 71
     0
 42
0.2
  3
txt.shx
  4
bigfont.shx
  0
STYLE
  2
TEXT
 70
     0
 40
0.0
 41
1.0
 50
0.0
 71
     0
 42
0.2
  3
txt.shx
  4
bigfont.shx
  0
STYLE
  2
TEXT_POPISU__DIN_
 70
     0
 40
0.0
 41
1.0
 50
0.0
 71
     0
 42
0.2
  3
txt.shx
  4
bigfont.shx
  0
STYLE
  2
TEXT_POZNáMKY__DIN_
 70
     0
 40
0.0
 41
1.0
 50
0.0
 71
     0
 42
0.2
  3
txt.shx
  4
bigfont.shx
  0
STYLE
  2
TEXT__2_0
 70
     0
 40
0.0
 41
1.0
 50
0.0
 71
     0
 42
0.2
  3
txt.shx
  4
bigfont.shx
  0
STYLE
  2
TEXT__2_5
 70
     0
 40
0.0
 41
1.0
 50
0.0
 71
     0
 42
0.2
  3
txt.shx
  4
bigfont.shx
  0
STYLE
  2
TEXT__3_0
 70
     0
 40
0.0
 41
1.0
 50
0.0
 71
     0
 42
0.2
  3
txt.shx
  4
bigfont.shx
  0
STYLE
  2
TEXT__3_5
 70
     0
 40
0.0
 41
1.0
 50
0.0
 71
     0
 42
0.2
  3
txt.shx
  4
bigfont.shx
  0
STYLE
  2
TEXT__5_0
 70
     0
 40
0.0
 41
1.0
 50
0.0
 71
     0
 42
0.2
  3
txt.shx
  4
bigfont.shx
  0
STYLE
  2
TEXT_KOTY
 70
     0
 40
0.0
 41
1.0
 50
0.0
 71
     0
 42
0.2
  3
txt.shx
  4
bigfont.shx
  0
STYLE
  2
MtXpl_Roboto
 70
     0
 40
0.0
 41
1.0
 50
0.0
 71
     0
 42
0.2
  3
txt
  4

  0
ENDTAB
  0
TABLE
  2
VIEW
 70
     0
  0
ENDTAB
  0
TABLE
  2
UCS
 70
     0
  0
ENDTAB
  0
TABLE
  2
APPID
 70
     3
  0
APPID
  2
ACAD
 70
     0
  0
APPID
  2
ACADANNOTATIVE
 70
     0
  0
APPID
  2
ACAD_MLEADERVER
 70
     0
  0
ENDTAB
  0
TABLE
  2
DIMSTYLE
 70
    20
  0
DIMSTYLE
  2
STANDARD
 70
     0
  3

  4

  5

  6

  7

 40
1.0
 41
0.18
 42
0.0625
 43
0.38
 44
0.18
 45
0.0
 46
0.0
 47
0.0
 48
0.0
140
0.18
141
0.09
142
0.0
143
25.3999999999999986
144
1.0
145
0.0
146
1.0
147
0.09
 71
     0
 72
     0
 73
     1
 74
     1
 75
     0
 76
     0
 77
     0
 78
     0
170
     0
171
     2
172
     0
173
     0
174
     0
175
     0
176
     0
177
     0
178
     0
  0
DIMSTYLE
  2
ANNOTATIVE
 70
     0
  3

  4

  5

  6

  7

 40
1.0
 41
0.18
 42
0.0625
 43
0.38
 44
0.18
 45
0.0
 46
0.0
 47
0.0
 48
0.0
140
0.18
141
0.09
142
0.0
143
25.3999999999999986
144
1.0
145
0.0
146
1.0
147
0.09
 71
     0
 72
     0
 73
     1
 74
     1
 75
     0
 76
     0
 77
     0
 78
     0
170
     0
171
     2
172
     0
173
     0
174
     0
175
     0
176
     0
177
     0
178
     0
  0
DIMSTYLE
  2
DOMYśLNE_-_METODA_1B__ISO_
 70
     0
  3

  4

  5

  6

  7

 40
1.0
 41
2.5
 42
0.0
 43
5.9999999999999991
 44
3.1749999999999989
 45
0.00000001
 46
10.0
 47
0.0
 48
0.0
140
3.5
141
0.09
142
0.0
143
0.0393700787401575
144
1.0
145
0.0
146
1.0
147
0.762
 71
     0
 72
     0
 73
     0
 74
     1
 75
     0
 76
     0
 77
     1
 78
     8
170
     0
171
     3
172
     1
173
     0
174
     0
175
     0
176
   256
177
   256
178
   256
  0
DIMSTYLE
  2
DOMYśLNE_-_METODA_1B__ISO0
 70
     0
  3

  4

  5

  6

  7

 40
1.0
 41
2.5
 42
0.0
 43
5.9999999999999991
 44
3.1749999999999989
 45
0.00000001
 46
10.0
 47
0.0
 48
0.0
140
3.5
141
0.09
142
0.0
143
0.0393700787401575
144
1.0
145
0.0
146
1.0
147
0.762
 71
     0
 72
     0
 73
     0
 74
     1
 75
     0
 76
     0
 77
     1
 78
     8
170
     0
171
     3
172
     1
173
     0
174
     0
175
     0
176
   256
177
   256
178
   256
  0
DIMSTYLE
  2
KOPIA_DOMYśLNE__ISO_
 70
     0
  3

  4

  5

  6

  7

 40
1.0
 41
2.5
 42
0.0
 43
10.0
 44
3.1749999999999989
 45
0.00000001
 46
10.0
 47
0.0
 48
0.0
140
3.5
141
0.09
142
0.0
143
0.0393700787401575
144
1.0
145
0.0
146
1.0014857053756709
147
0.762
 71
     0
 72
     0
 73
     0
 74
     1
 75
     0
 76
     0
 77
     1
 78
     8
170
     0
171
     3
172
     1
173
     0
174
     0
175
     0
176
   256
177
   256
178
   256
  0
DIMSTYLE
  2
KOPIA_DOMYśLNE__ISO_$7
 70
     0
  3

  4

  5

  6

  7

 40
1.0
 41
2.5
 42
0.0
 43
10.0
 44
3.1749999999999989
 45
0.00000001
 46
10.0
 47
0.0
 48
0.0
140
3.5
141
0.09
142
0.0
143
0.0393700787401575
144
1.0
145
0.0
146
1.0014857053756709
147
0.762
 71
     0
 72
     0
 73
     0
 74
     1
 75
     0
 76
     0
 77
     1
 78
     8
170
     0
171
     3
172
     1
173
     0
174
     0
175
     0
176
   256
177
   256
178
   256
  0
DIMSTYLE
  2
KóTOVáNí
 70
     0
  3

  4

  5

  6

  7

 40
1.0
 41
2.5
 42
0.1
 43
5.9999999999999991
 44
0.5
 45
0.00000001
 46
10.0
 47
0.0
 48
0.0
140
2.5
141
0.09
142
0.0
143
0.0393700787401575
144
1.0
145
0.0
146
1.3999999761581421
147
0.5
 71
     0
 72
     0
 73
     0
 74
     1
 75
     0
 76
     0
 77
     1
 78
     8
170
     0
171
     3
172
     1
173
     0
174
     0
175
     0
176
   256
177
   256
178
   256
  0
DIMSTYLE
  2
KóTOVáNí$7
 70
     0
  3

  4

  5

  6

  7

 40
1.0
 41
2.5
 42
0.1
 43
5.9999999999999991
 44
0.5
 45
0.00000001
 46
10.0
 47
0.0
 48
0.0
140
2.5
141
0.09
142
0.0
143
0.0393700787401575
144
1.0
145
0.0
146
1.3999999761581421
147
0.5
 71
     0
 72
     0
 73
     0
 74
     1
 75
     0
 76
     0
 77
     1
 78
     8
170
     0
171
     3
172
     1
173
     0
174
     0
175
     0
176
   256
177
   256
178
   256
  0
DIMSTYLE
  2
VýCHOZí_-_METODA_2A__DIN_
 70
     0
  3

  4

  5

  6

  7

 40
1.0
 41
2.5
 42
0.8
 43
5.9999999999999991
 44
3.1749999999999989
 45
0.00000001
 46
10.0
 47
0.0
 48
0.0
140
3.5
141
0.09
142
0.0
143
0.0393700787401575
144
1.0
145
0.0
146
1.0
147
0.8
 71
     0
 72
     0
 73
     1
 74
     1
 75
     0
 76
     0
 77
     1
 78
     8
170
     1
171
     3
172
     1
173
     0
174
     0
175
     0
176
   256
177
   256
178
   256
  0
DIMSTYLE
  2
VýCHOZí_-_METODA_2A__DIN_$
 70
     0
  3

  4

  5

  6

  7

 40
1.0
 41
2.5
 42
0.8
 43
5.9999999999999991
 44
3.1749999999999989
 45
0.00000001
 46
10.0
 47
0.0
 48
0.0
140
3.5
141
0.09
142
0.0
143
0.0393700787401575
144
1.0
145
0.0
146
1.0
147
0.8
 71
     0
 72
     0
 73
     1
 74
     1
 75
     0
 76
     0
 77
     1
 78
     8
170
     1
171
     3
172
     1
173
     0
174
     0
175
     0
176
   256
177
   256
178
   256
  0
DIMSTYLE
  2
VýCHOZí_-_METODA_2B__DIN_
 70
     0
  3

  4

  5

  6

  7

 40
1.0
 41
2.5
 42
0.0
 43
5.9999999999999991
 44
3.1749999999999989
 45
0.00000001
 46
10.0
 47
0.0
 48
0.0
140
3.5
141
0.09
142
0.0
143
0.0393700787401575
144
1.0
145
0.0
146
1.0
147
0.8
 71
     0
 72
     0
 73
     1
 74
     1
 75
     0
 76
     0
 77
     1
 78
     8
170
     0
171
     3
172
     1
173
     0
174
     0
175
     0
176
   256
177
   256
178
   256
  0
DIMSTYLE
  2
VýCHOZí_-_METODA_2B__DIN_$
 70
     0
  3

  4

  5

  6

  7

 40
1.0
 41
2.5
 42
0.0
 43
5.9999999999999991
 44
3.1749999999999989
 45
0.00000001
 46
10.0
 47
0.0
 48
0.0
140
3.5
141
0.09
142
0.0
143
0.0393700787401575
144
1.0
145
0.0
146
1.0
147
0.8
 71
     0
 72
     0
 73
     1
 74
     1
 75
     0
 76
     0
 77
     1
 78
     8
170
     0
171
     3
172
     1
173
     0
174
     0
175
     0
176
   256
177
   256
178
   256
  0
DIMSTYLE
  2
VýCHOZí__DIN_
 70
     0
  3

  4

  5

  6

  7

 40
1.0
 41
2.5
 42
0.8
 43
5.9999999999999991
 44
3.1749999999999989
 45
0.00000001
 46
10.0
 47
0.0
 48
0.0
140
3.5
141
0.09
142
0.0
143
0.0393700787401575
144
1.0
145
0.0
146
1.0
147
0.8
 71
     0
 72
     0
 73
     0
 74
     0
 75
     0
 76
     0
 77
     1
 78
     8
170
     0
171
     3
172
     1
173
     0
174
     0
175
     0
176
   256
177
   256
178
   256
  0
DIMSTYLE
  2
VýCHOZí__DIN_$7
 70
     0
  3

  4

  5

  6

  7

 40
1.0
 41
2.5
 42
0.8
 43
5.9999999999999991
 44
3.1749999999999989
 45
0.00000001
 46
10.0
 47
0.0
 48
0.0
140
3.5
141
0.09
142
0.0
143
0.0393700787401575
144
1.0
145
0.0
146
1.0
147
0.8
 71
     0
 72
     0
 73
     0
 74
     0
 75
     0
 76
     0
 77
     1
 78
     8
170
     0
171
     3
172
     1
173
     0
174
     0
175
     0
176
   256
177
   256
178
   256
  0
DIMSTYLE
  2
ALTERNATIVNí__ISO_
 70
     0
  3

  4

  5

  6

  7

 40
1.0
 41
2.5
 42
0.0625
 43
0.38
 44
0.18
 45
0.0
 46
0.0
 47
0.0
 48
0.0
140
0.18
141
0.09
142
0.0
143
25.3999999999999986
144
1.0
145
0.0
146
1.0
147
0.09
 71
     0
 72
     0
 73
     1
 74
     1
 75
     0
 76
     0
 77
     0
 78
     0
170
     0
171
     2
172
     0
173
     0
174
     0
175
     0
176
     0
177
     0
178
     0
  0
DIMSTYLE
  2
DODATKOWY__ISO_
 70
     0
  3

  4

  5

  6

  7

 40
1.0
 41
2.5
 42
0.0625
 43
0.38
 44
0.18
 45
0.0
 46
0.0
 47
0.0
 48
0.0
140
0.18
141
0.09
142
0.0
143
25.3999999999999986
144
1.0
145
0.0
146
1.0
147
0.09
 71
     0
 72
     0
 73
     1
 74
     1
 75
     0
 76
     0
 77
     0
 78
     0
170
     0
171
     2
172
     0
173
     0
174
     0
175
     0
176
     0
177
     0
178
     0
  0
DIMSTYLE
  2
DUżY__ISO_
 70
     0
  3

  4

  5

  6

  7

 40
1.0
 41
5.0
 42
0.0625
 43
0.38
 44
0.18
 45
0.0
 46
0.0
 47
0.0
 48
0.0
140
0.18
141
0.09
142
0.0
143
25.3999999999999986
144
1.0
145
0.0
146
1.0
147
0.09
 71
     0
 72
     0
 73
     1
 74
     1
 75
     0
 76
     0
 77
     0
 78
     0
170
     0
171
     2
172
     0
173
     0
174
     0
175
     0
176
     0
177
     0
178
     0
  0
DIMSTYLE
  2
ODNIESIENIE__ISO_
 70
     0
  3

  4

  5

  6

  7

 40
1.0
 41
2.5
 42
0.0625
 43
0.38
 44
0.18
 45
0.0
 46
0.0
 47
0.0
 48
0.0
140
0.18
141
0.09
142
0.0
143
25.3999999999999986
144
1.0
145
0.0
146
1.0
147
0.09
 71
     0
 72
     0
 73
     1
 74
     1
 75
     0
 76
     0
 77
     0
 78
     0
170
     0
171
     2
172
     0
173
     0
174
     0
175
     0
176
     0
177
     0
178
     0
  0
DIMSTYLE
  2
VELKé__ISO_
 70
     0
  3

  4

  5

  6

  7

 40
1.0
 41
5.0
 42
0.0625
 43
0.38
 44
0.18
 45
0.0
 46
0.0
 47
0.0
 48
0.0
140
0.18
141
0.09
142
0.0
143
25.3999999999999986
144
1.0
145
0.0
146
1.0
147
0.09
 71
     0
 72
     0
 73
     1
 74
     1
 75
     0
 76
     0
 77
     0
 78
     0
170
     0
171
     2
172
     0
173
     0
174
     0
175
     0
176
     0
177
     0
178
     0
  0
DIMSTYLE
  2
ZáKLADNY__ISO_
 70
     0
  3

  4

  5

  6

  7

 40
1.0
 41
2.5
 42
0.0625
 43
0.38
 44
0.18
 45
0.0
 46
0.0
 47
0.0
 48
0.0
140
0.18
141
0.09
142
0.0
143
25.3999999999999986
144
1.0
145
0.0
146
1.0
147
0.09
 71
     0
 72
     0
 73
     1
 74
     1
 75
     0
 76
     0
 77
     0
 78
     0
170
     0
171
     2
172
     0
173
     0
174
     0
175
     0
176
     0
177
     0
178
     0
  0
ENDTAB
  0
ENDSEC
  0
SECTION
  2
BLOCKS
  0
BLOCK
  8
0
  2
$MODEL_SPACE
 70
     0
 10
0.0
 20
0.0
 30
0.0
  3
$MODEL_SPACE
  1

  0
ENDBLK
  5
72
  8
0
  0
BLOCK
 67
     1
  8
0
  2
$PAPER_SPACE
 70
     0
 10
0.0
 20
0.0
 30
0.0
  3
$PAPER_SPACE
  1

  0
ENDBLK
  5
6E
 67
     1
  8
0
  0
BLOCK
  8
0
  2
FILLED-1
 70
     0
 10
0.0
 20
0.0
 30
0.0
  3
FILLED-1
  1

  0
LINE
  5
11D
  8
0
 62
     0
 10
-1.0
 20
0.0
 30
0.0
 11
0.0
 21
0.0
 31
0.0
  0
POLYLINE
  5
11F
  8
0
 62
     0
 66
     1
 10
0.0
 20
0.0
 30
0.0
 70
   128
  0
VERTEX
  5
120
  8
0
 62
     0
 10
-1.0
 20
-0.1
 30
0.0
  0
VERTEX
  5
121
  8
0
 62
     0
 10
0.0
 20
0.0
 30
0.0
  0
VERTEX
  5
123
  8
0
 62
     0
 10
-1.0
 20
0.1
 30
0.0
  0
VERTEX
  5
124
  8
0
 62
     0
 10
-1.0
 20
-0.1
 30
0.0
  0
SEQEND
  5
122
  8
0
 62
     0
  0
SOLID
  5
125
  8
0
 62
     0
 10
-1.0
 20
-0.1
 30
0.0
 11
0.0
 21
0.0
 31
0.0
 12
-1.0
 22
0.1
 32
0.0
 13
-1.0
 23
-0.1
 33
0.0
  0
LINE
  5
126
  8
0
 62
     0
 10
-1.0
 20
-0.1
 30
0.0
 11
0.0
 21
0.0
 31
0.0
  0
LINE
  5
127
  8
0
 62
     0
 10
0.0
 20
0.0
 30
0.0
 11
-1.0
 21
0.1
 31
0.0
  0
LINE
  5
128
  8
0
 62
     0
 10
-1.0
 20
0.1
 30
0.0
 11
-1.0
 21
-0.1
 31
0.0
  0
ENDBLK
  5
11C
  8
0
  0
BLOCK
  8
0
  2
DATUMFILLED45
 70
     0
 10
0.0
 20
0.0
 30
0.0
  3
DATUMFILLED45
  1

  0
POLYLINE
  5
12D
  8
0
 62
     0
 66
     1
 10
0.0
 20
0.0
 30
0.0
 70
   128
  0
VERTEX
  5
12E
  8
0
 62
     0
 10
0.0
 20
1.0
 30
0.0
  0
VERTEX
  5
12F
  8
0
 62
     0
 10
0.0
 20
-1.0
 30
0.0
  0
VERTEX
  5
131
  8
0
 62
     0
 10
-1.0
 20
0.0
 30
0.0
  0
VERTEX
  5
132
  8
0
 62
     0
 10
0.0
 20
1.0
 30
0.0
  0
SEQEND
  5
130
  8
0
 62
     0
  0
SOLID
  5
133
  8
0
 62
     0
 10
0.0
 20
1.0
 30
0.0
 11
0.0
 21
-1.0
 31
0.0
 12
-1.0
 22
0.0
 32
0.0
 13
0.0
 23
1.0
 33
0.0
  0
ENDBLK
  5
12C
  8
0
  0
BLOCK
  8
0
  2
*D3
 70
     1
 10
0.0
 20
0.0
 30
0.0
  3
*D3
  1

  0
LINE
  5
2A7
  8
WYMIAR__ISO_
 10
127.6663186791172961
 20
137.6804301299333133
 30
0.0
 11
127.6663186791172961
 21
194.7850254937457919
 31
0.0
  0
LINE
  5
2A8
  8
WYMIAR__ISO_
 10
206.0663186791173018
 20
137.4734062028406925
 30
0.0
 11
206.0663186791173018
 21
194.7850254937457919
 31
0.0
  0
LINE
  5
2A9
  8
WYMIAR__ISO_
 10
130.1663186791172961
 20
191.6100254937458942
 30
0.0
 11
203.5663186791173018
 21
191.6100254937458942
 31
0.0
  0
SOLID
  5
2AA
  8
WYMIAR__ISO_
 10
130.1663186791172961
 20
192.0266921604124946
 30
0.0
 11
130.1663186791172961
 21
191.1933588270792086
 31
0.0
 12
127.6663186791172961
 22
191.6100254937458942
 32
0.0
 13
127.6663186791172961
 23
191.6100254937458942
 33
0.0
  0
SOLID
  5
2AB
  8
WYMIAR__ISO_
 10
203.5663186791173018
 20
192.0266921604124946
 30
0.0
 11
203.5663186791173018
 21
191.1933588270792086
 31
0.0
 12
206.0663186791173018
 22
191.6100254937458942
 32
0.0
 13
206.0663186791173018
 23
191.6100254937458942
 33
0.0
  0
INSERT
  5
2AC
  8
0
  2
*U14
 10
0.0
 20
0.0
 30
0.0
  0
POINT
  5
2AD
  8
DEFPOINTS
 62
     0
 10
127.6663186791172961
 20
137.6804301299333133
 30
0.0
  0
POINT
  5
2AE
  8
DEFPOINTS
 62
     0
 10
206.0663186791173018
 20
137.4734062028406925
 30
0.0
  0
POINT
  5
2AF
  8
DEFPOINTS
 62
     0
 10
206.0663186791173018
 20
191.6100254937458942
 30
0.0
  0
ENDBLK
  5
1CB
  8
0
  0
BLOCK
  8
0
  2
*D4
 70
     1
 10
0.0
 20
0.0
 30
0.0
  3
*D4
  1

  0
LINE
  5
3AE
  8
WYMIAR__ISO_
 10
177.6663186791172109
 20
160.9734062028406925
 30
0.0
 11
177.6663186791172109
 21
187.9035185550783922
 31
0.0
  0
LINE
  5
3AF
  8
WYMIAR__ISO_
 10
178.0663186791173018
 20
160.9734062028406925
 30
0.0
 11
178.0663186791173018
 21
187.9035185550783922
 31
0.0
  0
LINE
  5
3B0
  8
WYMIAR__ISO_
 10
175.1663186791172109
 20
184.7285185550784092
 30
0.0
 11
172.6663186791172961
 21
184.7285185550784092
 31
0.0
  0
LINE
  5
3B1
  8
WYMIAR__ISO_
 10
180.5663186791173018
 20
184.7285185550784092
 30
0.0
 11
193.52080985120881
 21
184.7285185550784092
 31
0.0
  0
LINE
  5
3B2
  8
WYMIAR__ISO_
 10
177.6663186791172109
 20
184.7285185550784092
 30
0.0
 11
178.0663186791173018
 21
184.7285185550784092
 31
0.0
  0
SOLID
  5
3B3
  8
WYMIAR__ISO_
 10
175.1663186791172109
 20
185.1451852217450949
 30
0.0
 11
175.1663186791172109
 21
184.3118518884116952
 31
0.0
 12
177.6663186791172109
 22
184.7285185550784092
 32
0.0
 13
177.6663186791172109
 23
184.7285185550784092
 33
0.0
  0
SOLID
  5
3B4
  8
WYMIAR__ISO_
 10
180.5663186791173018
 20
185.1451852217450949
 30
0.0
 11
180.5663186791173018
 21
184.3118518884116952
 31
0.0
 12
178.0663186791173018
 22
184.7285185550784092
 32
0.0
 13
178.0663186791173018
 23
184.7285185550784092
 33
0.0
  0
INSERT
  5
3B5
  8
0
  2
*U15
 10
0.0
 20
0.0
 30
0.0
  0
POINT
  5
3B6
  8
DEFPOINTS
 62
     0
 10
177.6663186791172109
 20
160.9734062028406925
 30
0.0
  0
POINT
  5
3B7
  8
DEFPOINTS
 62
     0
 10
178.0663186791173018
 20
160.9734062028406925
 30
0.0
  0
POINT
  5
3B8
  8
DEFPOINTS
 62
     0
 10
178.0663186791173018
 20
184.7285185550784092
 30
0.0
  0
ENDBLK
  5
2B3
  8
0
  0
BLOCK
  8
0
  2
*D5
 70
     1
 10
0.0
 20
0.0
 30
0.0
  3
*D5
  1

  0
LINE
  5
49D
  8
WYMIAR__ISO_
 10
139.6663186791172961
 20
160.9734062028406925
 30
0.0
 11
139.6663186791172961
 21
178.7474109115323131
 31
0.0
  0
LINE
  5
49E
  8
WYMIAR__ISO_
 10
177.6663186791172109
 20
160.9734062028406925
 30
0.0
 11
177.6663186791172109
 21
178.7474109115323131
 31
0.0
  0
LINE
  5
49F
  8
WYMIAR__ISO_
 10
142.1663186791172961
 20
175.5724109115323017
 30
0.0
 11
175.1663186791172109
 21
175.5724109115323017
 31
0.0
  0
SOLID
  5
4A0
  8
WYMIAR__ISO_
 10
142.1663186791172961
 20
175.9890775781989021
 30
0.0
 11
142.1663186791172961
 21
175.1557442448655877
 31
0.0
 12
139.6663186791172961
 22
175.5724109115323017
 32
0.0
 13
139.6663186791172961
 23
175.5724109115323017
 33
0.0
  0
SOLID
  5
4A1
  8
WYMIAR__ISO_
 10
175.1663186791172109
 20
175.9890775781989021
 30
0.0
 11
175.1663186791172109
 21
175.1557442448655877
 31
0.0
 12
177.6663186791172109
 22
175.5724109115323017
 32
0.0
 13
177.6663186791172109
 23
175.5724109115323017
 33
0.0
  0
INSERT
  5
4A2
  8
0
  2
*U16
 10
0.0
 20
0.0
 30
0.0
  0
POINT
  5
4A3
  8
DEFPOINTS
 62
     0
 10
139.6663186791172961
 20
160.9734062028406925
 30
0.0
  0
POINT
  5
4A4
  8
DEFPOINTS
 62
     0
 10
177.6663186791172109
 20
160.9734062028406925
 30
0.0
  0
POINT
  5
4A5
  8
DEFPOINTS
 62
     0
 10
177.6663186791172109
 20
175.5724109115323017
 30
0.0
  0
ENDBLK
  5
3BC
  8
0
  0
BLOCK
  8
0
  2
*D6
 70
     1
 10
0.0
 20
0.0
 30
0.0
  3
*D6
  1

  0
LINE
  5
58A
  8
WYMIAR__ISO_
 10
178.0663186791173018
 20
160.9734062028406925
 30
0.0
 11
178.0663186791173018
 21
178.7474109115323131
 31
0.0
  0
LINE
  5
58B
  8
WYMIAR__ISO_
 10
206.0663186791173018
 20
160.9734062028406925
 30
0.0
 11
206.0663186791173018
 21
178.7474109115323131
 31
0.0
  0
LINE
  5
58C
  8
WYMIAR__ISO_
 10
180.5663186791173018
 20
175.5724109115323017
 30
0.0
 11
203.5663186791173018
 21
175.5724109115323017
 31
0.0
  0
SOLID
  5
58D
  8
WYMIAR__ISO_
 10
180.5663186791173018
 20
175.9890775781989021
 30
0.0
 11
180.5663186791173018
 21
175.1557442448655877
 31
0.0
 12
178.0663186791173018
 22
175.5724109115323017
 32
0.0
 13
178.0663186791173018
 23
175.5724109115323017
 33
0.0
  0
SOLID
  5
58E
  8
WYMIAR__ISO_
 10
203.5663186791173018
 20
175.9890775781989021
 30
0.0
 11
203.5663186791173018
 21
175.1557442448655877
 31
0.0
 12
206.0663186791173018
 22
175.5724109115323017
 32
0.0
 13
206.0663186791173018
 23
175.5724109115323017
 33
0.0
  0
INSERT
  5
58F
  8
0
  2
*U17
 10
0.0
 20
0.0
 30
0.0
  0
POINT
  5
590
  8
DEFPOINTS
 62
     0
 10
178.0663186791173018
 20
160.9734062028406925
 30
0.0
  0
POINT
  5
591
  8
DEFPOINTS
 62
     0
 10
206.0663186791173018
 20
160.9734062028406925
 30
0.0
  0
POINT
  5
592
  8
DEFPOINTS
 62
     0
 10
206.0663186791173018
 20
175.5724109115323017
 30
0.0
  0
ENDBLK
  5
4A9
  8
0
  0
BLOCK
  8
0
  2
*D7
 70
     1
 10
0.0
 20
0.0
 30
0.0
  3
*D7
  1

  0
LINE
  5
677
  8
WYMIAR__ISO_
 10
248.1388968227358873
 20
152.4734062028406925
 30
0.0
 11
248.1388968227358873
 21
182.3034068462440871
 31
0.0
  0
LINE
  5
678
  8
WYMIAR__ISO_
 10
264.1388968227358873
 20
144.9734062028406925
 30
0.0
 11
264.1388968227358873
 21
182.3034068462440871
 31
0.0
  0
LINE
  5
679
  8
WYMIAR__ISO_
 10
250.6388968227358873
 20
179.1284068462441041
 30
0.0
 11
261.6388968227358873
 21
179.1284068462441041
 31
0.0
  0
SOLID
  5
67A
  8
WYMIAR__ISO_
 10
250.6388968227358873
 20
179.5450735129107045
 30
0.0
 11
250.6388968227358873
 21
178.7117401795773901
 31
0.0
 12
248.1388968227358873
 22
179.1284068462441041
 32
0.0
 13
248.1388968227358873
 23
179.1284068462441041
 33
0.0
  0
SOLID
  5
67B
  8
WYMIAR__ISO_
 10
261.6388968227358873
 20
179.5450735129107045
 30
0.0
 11
261.6388968227358873
 21
178.7117401795773901
 31
0.0
 12
264.1388968227358873
 22
179.1284068462441041
 32
0.0
 13
264.1388968227358873
 23
179.1284068462441041
 33
0.0
  0
INSERT
  5
67C
  8
0
  2
*U18
 10
0.0
 20
0.0
 30
0.0
  0
POINT
  5
67D
  8
DEFPOINTS
 62
     0
 10
248.1388968227358873
 20
152.4734062028406925
 30
0.0
  0
POINT
  5
67E
  8
DEFPOINTS
 62
     0
 10
264.1388968227358873
 20
144.9734062028406925
 30
0.0
  0
POINT
  5
67F
  8
DEFPOINTS
 62
     0
 10
264.1388968227358873
 20
179.1284068462441041
 30
0.0
  0
ENDBLK
  5
596
  8
0
  0
BLOCK
  8
0
  2
*D8
 70
     1
 10
0.0
 20
0.0
 30
0.0
  3
*D8
  1

  0
LINE
  5
780
  8
WYMIAR__ISO_
 10
248.1388968227394969
 20
160.9734062028406925
 30
0.0
 11
248.1388968227394969
 21
172.6204356559788096
 31
0.0
  0
LINE
  5
781
  8
WYMIAR__ISO_
 10
253.1388968227394969
 20
160.9734062028406925
 30
0.0
 11
253.1388968227394969
 21
172.6204356559788096
 31
0.0
  0
LINE
  5
782
  8
WYMIAR__ISO_
 10
245.6388968227394969
 20
169.4454356559787982
 30
0.0
 11
243.1388968227394969
 21
169.4454356559787982
 31
0.0
  0
LINE
  5
783
  8
WYMIAR__ISO_
 10
255.6388968227394969
 20
169.4454356559787982
 30
0.0
 11
258.1388968227395253
 21
169.4454356559787982
 31
0.0
  0
LINE
  5
784
  8
WYMIAR__ISO_
 10
248.1388968227394969
 20
169.4454356559787982
 30
0.0
 11
253.1388968227394969
 21
169.4454356559787982
 31
0.0
  0
SOLID
  5
785
  8
WYMIAR__ISO_
 10
245.6388968227394969
 20
169.8621023226455122
 30
0.0
 11
245.6388968227394969
 21
169.0287689893121978
 31
0.0
 12
248.1388968227394969
 22
169.4454356559787982
 32
0.0
 13
248.1388968227394969
 23
169.4454356559787982
 33
0.0
  0
SOLID
  5
786
  8
WYMIAR__ISO_
 10
255.6388968227394969
 20
169.8621023226455122
 30
0.0
 11
255.6388968227394969
 21
169.0287689893121978
 31
0.0
 12
253.1388968227394969
 22
169.4454356559787982
 32
0.0
 13
253.1388968227394969
 23
169.4454356559787982
 33
0.0
  0
INSERT
  5
787
  8
0
  2
*U19
 10
0.0
 20
0.0
 30
0.0
  0
POINT
  5
788
  8
DEFPOINTS
 62
     0
 10
248.1388968227394969
 20
160.9734062028406925
 30
0.0
  0
POINT
  5
789
  8
DEFPOINTS
 62
     0
 10
253.1388968227394969
 20
160.9734062028406925
 30
0.0
  0
POINT
  5
78A
  8
DEFPOINTS
 62
     0
 10
253.1388968227394969
 20
169.4454356559787982
 30
0.0
  0
ENDBLK
  5
685
  8
0
  0
BLOCK
  8
0
  2
*D9
 70
     1
 10
0.0
 20
0.0
 30
0.0
  3
*D9
  1

  0
LINE
  5
86F
  8
WYMIAR__ISO_
 10
168.6663186791172961
 20
125.9234062028406953
 30
0.0
 11
168.6663186791172961
 21
112.7484062028406981
 31
0.0
  0
LINE
  5
870
  8
WYMIAR__ISO_
 10
186.0663186791173018
 20
125.9234062028406953
 30
0.0
 11
186.0663186791173018
 21
112.7484062028406981
 31
0.0
  0
LINE
  5
871
  8
WYMIAR__ISO_
 10
171.1663186791172961
 20
115.9234062028406953
 30
0.0
 11
183.5663186791173018
 21
115.9234062028406953
 31
0.0
  0
SOLID
  5
872
  8
WYMIAR__ISO_
 10
171.1663186791172961
 20
116.3400728695073951
 30
0.0
 11
171.1663186791172961
 21
115.5067395361739955
 31
0.0
 12
168.6663186791172961
 22
115.9234062028406953
 32
0.0
 13
168.6663186791172961
 23
115.9234062028406953
 33
0.0
  0
SOLID
  5
873
  8
WYMIAR__ISO_
 10
183.5663186791173018
 20
116.3400728695073951
 30
0.0
 11
183.5663186791173018
 21
115.5067395361739955
 31
0.0
 12
186.0663186791173018
 22
115.9234062028406953
 32
0.0
 13
186.0663186791173018
 23
115.9234062028406953
 33
0.0
  0
INSERT
  5
874
  8
0
  2
*U20
 10
0.0
 20
0.0
 30
0.0
  0
POINT
  5
875
  8
DEFPOINTS
 62
     0
 10
168.6663186791172961
 20
125.9234062028406953
 30
0.0
  0
POINT
  5
876
  8
DEFPOINTS
 62
     0
 10
186.0663186791173018
 20
125.9234062028406953
 30
0.0
  0
POINT
  5
877
  8
DEFPOINTS
 62
     0
 10
186.0663186791173018
 20
115.9234062028406953
 30
0.0
  0
ENDBLK
  5
78E
  8
0
  0
BLOCK
  8
0
  2
*D10
 70
     1
 10
0.0
 20
0.0
 30
0.0
  3
*D10
  1

  0
LINE
  5
95C
  8
WYMIAR__ISO_
 10
148.6663186791172961
 20
125.9234062028406953
 30
0.0
 11
148.6663186791172961
 21
97.2605617375230338
 31
0.0
  0
LINE
  5
95D
  8
WYMIAR__ISO_
 10
198.0663186791173018
 20
125.9234062028406953
 30
0.0
 11
198.0663186791173018
 21
97.2605617375230338
 31
0.0
  0
LINE
  5
95E
  8
WYMIAR__ISO_
 10
151.1663186791172961
 20
100.4355617375230025
 30
0.0
 11
195.5663186791173018
 21
100.4355617375230025
 31
0.0
  0
SOLID
  5
95F
  8
WYMIAR__ISO_
 10
151.1663186791172961
 20
100.8522284041897024
 30
0.0
 11
151.1663186791172961
 21
100.0188950708563027
 31
0.0
 12
148.6663186791172961
 22
100.4355617375230025
 32
0.0
 13
148.6663186791172961
 23
100.4355617375230025
 33
0.0
  0
SOLID
  5
960
  8
WYMIAR__ISO_
 10
195.5663186791173018
 20
100.8522284041897024
 30
0.0
 11
195.5663186791173018
 21
100.0188950708563027
 31
0.0
 12
198.0663186791173018
 22
100.4355617375230025
 32
0.0
 13
198.0663186791173018
 23
100.4355617375230025
 33
0.0
  0
INSERT
  5
961
  8
0
  2
*U21
 10
0.0
 20
0.0
 30
0.0
  0
POINT
  5
962
  8
DEFPOINTS
 62
     0
 10
148.6663186791172961
 20
125.9234062028406953
 30
0.0
  0
POINT
  5
963
  8
DEFPOINTS
 62
     0
 10
198.0663186791173018
 20
125.9234062028406953
 30
0.0
  0
POINT
  5
964
  8
DEFPOINTS
 62
     0
 10
198.0663186791173018
 20
100.4355617375230025
 30
0.0
  0
ENDBLK
  5
87B
  8
0
  0
BLOCK
  8
0
  2
*D11
 70
     1
 10
0.0
 20
0.0
 30
0.0
  3
*D11
  1

  0
LINE
  5
A49
  8
WYMIAR__ISO_
 10
127.6663186791172961
 20
137.6804301299333133
 30
0.0
 11
127.6663186791172961
 21
187.9035185550783069
 31
0.0
  0
LINE
  5
A4A
  8
WYMIAR__ISO_
 10
177.6663186791172109
 20
160.9734062028406925
 30
0.0
 11
177.6663186791172109
 21
187.9035185550783922
 31
0.0
  0
LINE
  5
A4B
  8
WYMIAR__ISO_
 10
130.1663186791172961
 20
184.7285185550784092
 30
0.0
 11
175.1663186791172109
 21
184.7285185550784092
 31
0.0
  0
SOLID
  5
A4C
  8
WYMIAR__ISO_
 10
130.1663186791172961
 20
185.1451852217450949
 30
0.0
 11
130.1663186791172961
 21
184.3118518884116952
 31
0.0
 12
127.6663186791172961
 22
184.7285185550784092
 32
0.0
 13
127.6663186791172961
 23
184.7285185550784092
 33
0.0
  0
SOLID
  5
A4D
  8
WYMIAR__ISO_
 10
175.1663186791172109
 20
185.1451852217450949
 30
0.0
 11
175.1663186791172109
 21
184.3118518884116952
 31
0.0
 12
177.6663186791172109
 22
184.7285185550784092
 32
0.0
 13
177.6663186791172109
 23
184.7285185550784092
 33
0.0
  0
INSERT
  5
A4E
  8
0
  2
*U22
 10
0.0
 20
0.0
 30
0.0
  0
POINT
  5
A4F
  8
DEFPOINTS
 62
     0
 10
127.6663186791172961
 20
137.6804301299333133
 30
0.0
  0
POINT
  5
A50
  8
DEFPOINTS
 62
     0
 10
177.6663186791172109
 20
160.9734062028406925
 30
0.0
  0
POINT
  5
A51
  8
DEFPOINTS
 62
     0
 10
177.6663186791172109
 20
184.7285185550784092
 30
0.0
  0
ENDBLK
  5
968
  8
0
  0
BLOCK
  8
0
  2
*D12
 70
     1
 10
0.0
 20
0.0
 30
0.0
  3
*D12
  1

  0
LINE
  5
B59
  8
WYMIAR__ISO_
 10
198.0663186791173871
 20
154.9234062028407095
 30
0.0
 11
219.3422376958779125
 21
154.9234062028407095
 31
0.0
  0
LINE
  5
B5A
  8
WYMIAR__ISO_
 10
198.0663186791173871
 20
161.5234062028407038
 30
0.0
 11
219.3422376958779125
 21
161.5234062028407038
 31
0.0
  0
LINE
  5
B5B
  8
WYMIAR__ISO_
 10
216.1672376958779012
 20
164.0234062028407038
 30
0.0
 11
216.1672376958779012
 21
166.5234062028407038
 31
0.0
  0
LINE
  5
B5C
  8
WYMIAR__ISO_
 10
216.1672376958779012
 20
152.4234062028407095
 30
0.0
 11
216.1672376958779012
 21
140.8160728695073942
 31
0.0
  0
LINE
  5
B5D
  8
WYMIAR__ISO_
 10
216.1672376958779012
 20
161.5234062028407038
 30
0.0
 11
216.1672376958779012
 21
154.9234062028407095
 31
0.0
  0
SOLID
  5
B5E
  8
WYMIAR__ISO_
 10
215.7505710292113008
 20
164.0234062028407038
 30
0.0
 11
216.5839043625445015
 21
164.0234062028407038
 31
0.0
 12
216.1672376958779012
 22
161.5234062028407038
 32
0.0
 13
216.1672376958779012
 23
161.5234062028407038
 33
0.0
  0
SOLID
  5
B5F
  8
WYMIAR__ISO_
 10
215.7505710292113008
 20
152.4234062028407095
 30
0.0
 11
216.5839043625445015
 21
152.4234062028407095
 31
0.0
 12
216.1672376958779012
 22
154.9234062028407095
 32
0.0
 13
216.1672376958779012
 23
154.9234062028407095
 33
0.0
  0
INSERT
  5
B60
  8
0
  2
*U23
 10
0.0
 20
0.0
 30
0.0
  0
POINT
  5
B61
  8
DEFPOINTS
 62
     0
 10
198.0663186791173871
 20
154.9234062028407095
 30
0.0
  0
POINT
  5
B62
  8
DEFPOINTS
 62
     0
 10
198.0663186791173871
 20
161.5234062028407038
 30
0.0
  0
POINT
  5
B63
  8
DEFPOINTS
 62
     0
 10
216.1672376958779012
 20
161.5234062028407038
 30
0.0
  0
ENDBLK
  5
A55
  8
0
  0
BLOCK
  8
0
  2
*D13
 70
     1
 10
0.0
 20
0.0
 30
0.0
  3
*D13
  1

  0
LINE
  5
C4F
  8
WYMIAR__ISO_
 10
127.6663186791173956
 20
119.5915132493551027
 30
0.0
 11
109.4913186791161053
 21
119.5915132493551027
 31
0.0
  0
LINE
  5
C50
  8
WYMIAR__ISO_
 10
142.6663186791161024
 20
163.9734062028406925
 30
0.0
 11
109.4913186791161053
 21
163.9734062028406925
 31
0.0
  0
LINE
  5
C51
  8
WYMIAR__ISO_
 10
112.6663186791161024
 20
122.0915132493551027
 30
0.0
 11
112.666318679116003
 21
161.4734062028408061
 31
0.0
  0
SOLID
  5
C52
  8
WYMIAR__ISO_
 10
112.2496520124494026
 20
122.0915132493551027
 30
0.0
 11
113.0829853457827028
 21
122.0915132493551027
 31
0.0
 12
112.6663186791161024
 22
119.5915132493551027
 32
0.0
 13
112.6663186791161024
 23
119.5915132493551027
 33
0.0
  0
SOLID
  5
C53
  8
WYMIAR__ISO_
 10
112.2496520124494026
 20
161.4734062028408061
 30
0.0
 11
113.0829853457827028
 21
161.4734062028408061
 31
0.0
 12
112.666318679116003
 22
163.9734062028406925
 32
0.0
 13
112.666318679116003
 23
163.9734062028406925
 33
0.0
  0
INSERT
  5
C54
  8
0
  2
*U24
 10
0.0
 20
0.0
 30
0.0
  0
POINT
  5
C55
  8
DEFPOINTS
 62
     0
 10
127.6663186791173956
 20
119.5915132493551027
 30
0.0
  0
POINT
  5
C56
  8
DEFPOINTS
 62
     0
 10
142.6663186791161024
 20
163.9734062028406925
 30
0.0
  0
POINT
  5
C57
  8
DEFPOINTS
 62
     0
 10
112.666318679116003
 20
163.9734062028406925
 30
0.0
  0
ENDBLK
  5
B67
  8
0
  0
BLOCK
  8
0
  2
*U14
 70
     1
 10
0.0
 20
0.0
 30
0.0
  3
*U14
  1

  0
TEXT
  5
CB5
  8
WYMIAR__ISO_
 10
159.6817688480479944
 20
192.4388740718520125
 30
0.0
 40
3.5
  1
 
  7
TEKST_NOTATKI__ISO_
  0
TEXT
  5
CB6
  8
WYMIAR__ISO_
 10
161.7817688480479887
 20
192.4388740718520125
 30
0.0
 40
3.5
  1
78-84
  7
MtXpl_Roboto
  0
ENDBLK
  5
CB8
  8
0
  0
BLOCK
  8
0
  2
*U15
 70
     1
 10
0.0
 20
0.0
 30
0.0
  3
*U15
  1

  0
TEXT
  5
CBA
  8
WYMIAR__ISO_
 10
183.8283186791173023
 20
185.5573671331844992
 30
0.0
 40
3.5
  1
 
  7
TEKST_NOTATKI__ISO_
  0
TEXT
  5
CBB
  8
WYMIAR__ISO_
 10
185.9283186791172966
 20
185.5573671331844992
 30
0.0
 40
3.5
  1
0-4
  7
MtXpl_Roboto
  0
ENDBLK
  5
CBD
  8
0
  0
BLOCK
  8
0
  2
*U16
 70
     1
 10
0.0
 20
0.0
 30
0.0
  3
*U16
  1

  0
TEXT
  5
CBF
  8
WYMIAR__ISO_
 10
155.7496520124506105
 20
176.3344109115323022
 30
0.0
 40
3.5
  1
38
  7
TEKST_NOTATKI__ISO_
  0
ENDBLK
  5
CC1
  8
0
  0
BLOCK
  8
0
  2
*U17
 70
     1
 10
0.0
 20
0.0
 30
0.0
  3
*U17
  1

  0
TEXT
  5
CC3
  8
WYMIAR__ISO_
 10
189.1496520124507015
 20
176.3344109115323022
 30
0.0
 40
3.5
  1
28
  7
TEKST_NOTATKI__ISO_
  0
ENDBLK
  5
CC5
  8
0
  0
BLOCK
  8
0
  2
*U18
 70
     1
 10
0.0
 20
0.0
 30
0.0
  3
*U18
  1

  0
TEXT
  5
CC7
  8
WYMIAR__ISO_
 10
253.8055634894024877
 20
179.8904068462441046
 30
0.0
 40
3.5
  1
16
  7
TEKST_NOTATKI__ISO_
  0
ENDBLK
  5
CC9
  8
0
  0
BLOCK
  8
0
  2
*U19
 70
     1
 10
0.0
 20
0.0
 30
0.0
  3
*U19
  1

  0
TEXT
  5
CCB
  8
WYMIAR__ISO_
 10
249.4722301560728113
 20
170.2074356559787986
 30
0.0
 40
3.5
  1
5
  7
TEKST_NOTATKI__ISO_
  0
ENDBLK
  5
CCD
  8
0
  0
BLOCK
  8
0
  2
*U20
 70
     1
 10
0.0
 20
0.0
 30
0.0
  3
*U20
  1

  0
TEXT
  5
CCF
  8
WYMIAR__ISO_
 10
170.5124305143654908
 20
116.6925685595899012
 30
0.0
 40
3.5
  1
 
  7
TEKST_NOTATKI__ISO_
  0
TEXT
  5
CD0
  8
WYMIAR__ISO_
 10
172.6124305143655135
 20
116.6925685595899012
 30
0.0
 40
3.5
  1
17-21
  7
MtXpl_Roboto
  0
ENDBLK
  5
CD2
  8
0
  0
BLOCK
  8
0
  2
*U21
 70
     1
 10
0.0
 20
0.0
 30
0.0
  3
*U21
  1

  0
TEXT
  5
CD4
  8
WYMIAR__ISO_
 10
166.1746065014851013
 20
101.2667977644833996
 30
0.0
 40
3.5
  1
 
  7
TEKST_NOTATKI__ISO_
  0
TEXT
  5
CD5
  8
WYMIAR__ISO_
 10
168.2746065014850956
 20
101.2667977644833996
 30
0.0
 40
3.5
  1
49-53
  7
MtXpl_Roboto
  0
ENDBLK
  5
CD7
  8
0
  0
BLOCK
  8
0
  2
*U22
 70
     1
 10
0.0
 20
0.0
 30
0.0
  3
*U22
  1

  0
TEXT
  5
CD9
  8
WYMIAR__ISO_
 10
150.0413186791172961
 20
185.4905185550784097
 30
0.0
 40
3.5
  1
50
  7
TEKST_NOTATKI__ISO_
  0
ENDBLK
  5
CDB
  8
0
  0
BLOCK
  8
0
  2
*U23
 70
     1
 10
0.0
 20
0.0
 30
0.0
  3
*U23
  1

  0
TEXT
  5
CDD
  8
WYMIAR__ISO_
 10
214.8219043625445863
 20
141.5780728695073094
 30
0.0
 40
3.5
  1
6,6
 50
90.0
  7
TEKST_NOTATKI__ISO_
  0
ENDBLK
  5
CDF
  8
0
  0
BLOCK
  8
0
  2
*U24
 70
     1
 10
0.0
 20
0.0
 30
0.0
  3
*U24
  1

  0
TEXT
  5
CE1
  8
WYMIAR__ISO_
 10
111.904318679116102
 20
138.865793059431212
 30
0.0
 40
3.5
  1
44
 50
90.0
  7
TEKST_NOTATKI__ISO_
  0
ENDBLK
  5
CE3
  8
0
  0
ENDSEC
  0
SECTION
  2
ENTITIES
  0
ARC
  5
137
  8
WIDOCZNE__ISO_
 10
193.5161723919615042
 20
131.6136616378935003
 30
0.0
 40
3.5
 50
294.2863132271305062
 51
76.9599875455573539
  0
ARC
  5
138
  8
WIDOCZNE__ISO_
 10
193.5161723919615042
 20
131.6136616378935003
 30
0.0
 40
3.5
 50
103.040012454442703
 51
245.7136867728692948
  0
ARC
  5
139
  8
WIDOCZNE__ISO_
 10
193.5161723919615042
 20
158.1136616378935003
 30
0.0
 40
3.5000000000000009
 50
294.2863132271305062
 51
76.9599875455573539
  0
ARC
  5
13A
  8
WIDOCZNE__ISO_
 10
193.5161723919615042
 20
158.1136616378935003
 30
0.0
 40
3.5
 50
103.040012454442703
 51
245.7136867728692948
  0
ARC
  5
13B
  8
WIDOCZNE__ISO_
 10
198.5061723919505994
 20
160.3636616378931024
 30
0.0
 40
2.000000000010949
 50
0.0
 51
2.3963882732403219
  0
LINE
  5
13C
  8
WIDOCZNE__ISO_
 10
200.5061723919615133
 20
160.3636616378935003
 30
0.0
 11
200.5061723919615133
 21
156.0014444885171088
 31
0.0
  0
LINE
  5
13D
  8
WIDOCZNE__ISO_
 10
200.5061723919615986
 20
133.9453679171643046
 30
0.0
 11
200.5061723919615986
 21
129.5014444885171088
 31
0.0
  0
ARC
  5
13E
  8
WIDOCZNE__ISO_
 10
188.5261723919618078
 20
129.3636616378938982
 30
0.0
 40
2.000000000000314
 50
180.0
 51
208.0425872742403044
  0
LINE
  5
13F
  8
WIDOCZNE__ISO_
 10
186.5261723919616088
 20
129.3636616378935003
 30
0.0
 11
186.5261723919616088
 21
135.0234062028407038
 31
0.0
  0
LINE
  5
140
  8
WIDOCZNE__ISO_
 10
186.5261723919614951
 20
154.9234062028407095
 30
0.0
 11
186.5261723919614951
 21
160.3636616378935003
 31
0.0
  0
ARC
  5
141
  8
WIDOCZNE__ISO_
 10
188.5261723919618078
 20
160.3636616378933013
 30
0.0
 40
2.0000000000003229
 50
144.5584398293983099
 51
180.0
  0
ARC
  5
142
  8
WIDOCZNE__ISO_
 10
158.745092955012808
 20
131.6136616378933866
 30
0.0
 40
3.5
 50
294.2863132271351105
 51
76.9599875455663067
  0
ARC
  5
143
  8
WIDOCZNE__ISO_
 10
158.745092955012808
 20
131.6136616378933866
 30
0.0
 40
3.5
 50
103.0400124544336933
 51
245.7136867728644916
  0
ARC
  5
144
  8
WIDOCZNE__ISO_
 10
158.745092955012808
 20
158.1136616378933866
 30
0.0
 40
3.5
 50
294.2863132271351105
 51
76.9599875455658946
  0
ARC
  5
145
  8
WIDOCZNE__ISO_
 10
158.745092955012808
 20
158.1136616378933866
 30
0.0
 40
3.5
 50
103.0400124544336933
 51
245.7136867728644916
  0
ARC
  5
146
  8
WIDOCZNE__ISO_
 10
163.7350929550125898
 20
160.3636616378931876
 30
0.0
 40
2.0000000000003091
 50
0.0
 51
35.441560170606742
  0
LINE
  5
147
  8
WIDOCZNE__ISO_
 10
165.7350929550127887
 20
160.3636616378935003
 30
0.0
 11
165.7350929550127887
 21
154.9234062028407095
 31
0.0
  0
LINE
  5
148
  8
WIDOCZNE__ISO_
 10
165.7350929550127887
 20
135.0234062028407038
 30
0.0
 11
165.7350929550127887
 21
129.3636616378935003
 31
0.0
  0
ARC
  5
149
  8
WIDOCZNE__ISO_
 10
163.7350929550123908
 20
129.3636616378938129
 30
0.0
 40
2.000000000000401
 50
331.9574127257633904
 51
0.0
  0
ARC
  5
14A
  8
WIDOCZNE__ISO_
 10
153.7550929550131116
 20
129.3636616378938129
 30
0.0
 40
2.0000000000003539
 50
180.0
 51
208.0425872742372917
  0
LINE
  5
14B
  8
WIDOCZNE__ISO_
 10
151.7550929550127989
 20
129.3636616378935003
 30
0.0
 11
151.7550929550127989
 21
135.0234062028407038
 31
0.0
  0
LINE
  5
14C
  8
WIDOCZNE__ISO_
 10
151.7550929550127989
 20
154.9234062028407095
 30
0.0
 11
151.7550929550127989
 21
160.3636616378935003
 31
0.0
  0
ARC
  5
14D
  8
WIDOCZNE__ISO_
 10
153.7550929550131116
 20
160.3636616378931876
 30
0.0
 40
2.0000000000003428
 50
144.5584398293935067
 51
180.0
  0
ARC
  5
14E
  8
WIDOCZNE__ISO_
 10
148.6663186791172109
 20
131.7234062028406925
 30
0.0
 40
3.2999999999999998
 50
90.0
 51
270.0
  0
LINE
  5
14F
  8
WIDOCZNE__ISO_
 10
148.6663186791172109
 20
135.0234062028407038
 30
0.0
 11
168.6663186791172961
 21
135.0234062028407038
 31
0.0
  0
LINE
  5
150
  8
WIDOCZNE__ISO_
 10
168.6663186791172961
 20
154.9234062028407095
 30
0.0
 11
148.6663186791172109
 21
154.9234062028407095
 31
0.0
  0
ARC
  5
151
  8
WIDOCZNE__ISO_
 10
148.6663186791172109
 20
158.2234062028406925
 30
0.0
 40
3.2999999999999998
 50
90.0
 51
270.0
  0
ARC
  5
152
  8
WIDOCZNE__ISO_
 10
168.6663186791172961
 20
131.7234062028406925
 30
0.0
 40
3.2999999999999998
 50
270.0
 51
90.0
  0
LINE
  5
153
  8
WIDOCZNE__ISO_
 10
168.6663186791172961
 20
128.4234062028407095
 30
0.0
 11
148.6663186791172109
 21
128.4234062028407095
 31
0.0
  0
LINE
  5
154
  8
WIDOCZNE__ISO_
 10
148.6663186791172109
 20
161.5234062028407038
 30
0.0
 11
168.6663186791172961
 21
161.5234062028407038
 31
0.0
  0
ARC
  5
155
  8
WIDOCZNE__ISO_
 10
168.6663186791172961
 20
158.2234062028406925
 30
0.0
 40
3.2999999999999998
 50
270.0
 51
90.0
  0
LINE
  5
156
  8
WIDOCZNE__ISO_
 10
127.6663186791171967
 20
137.6804301299333133
 30
0.0
 11
139.6663186791172109
 21
137.6804301299333133
 31
0.0
  0
LINE
  5
157
  8
WIDOCZNE__ISO_
 10
127.6663186791171967
 20
137.6804301299333133
 30
0.0
 11
127.6663186791171967
 21
152.4734062028406925
 31
0.0
  0
ARC
  5
158
  8
WIDOCZNE__ISO_
 10
142.6663186791159887
 20
128.9734062028394987
 30
0.0
 40
2.9999999999987761
 50
180.0
 51
270.0000000000230784
  0
ARC
  5
159
  8
WIDOCZNE__ISO_
 10
174.6663186791178077
 20
160.9734062028412893
 30
0.0
 40
2.9999999999993898
 50
0.0
 51
90.0000000000115961
  0
ARC
  5
15A
  8
WIDOCZNE__ISO_
 10
174.6663186791178077
 20
128.9734062028400956
 30
0.0
 40
2.9999999999993889
 50
269.9999999999885176
 51
0.0
  0
ARC
  5
15B
  8
WIDOCZNE__ISO_
 10
136.666318679117694
 20
155.4734062028402093
 30
0.0
 40
2.99999999999946
 50
269.9999999999905071
 51
0.0
  0
LINE
  5
15C
  8
WIDOCZNE__ISO_
 10
139.6663186791172109
 20
160.9734062028406925
 30
0.0
 11
139.6663186791172109
 21
155.4734062028406925
 31
0.0
  0
ARC
  5
15D
  8
WIDOCZNE__ISO_
 10
142.6663186791159887
 20
160.9734062028418862
 30
0.0
 40
2.9999999999987832
 50
90.0
 51
180.0
  0
LINE
  5
15E
  8
WIDOCZNE__ISO_
 10
177.6663186791172109
 20
152.4734062028406925
 30
0.0
 11
177.6663186791172109
 21
160.9734062028406925
 31
0.0
  0
LINE
  5
15F
  8
WIDOCZNE__ISO_
 10
177.6663186791172109
 20
152.4734062028406925
 30
0.0
 11
177.6663186791172109
 21
137.4734062028406925
 31
0.0
  0
LINE
  5
160
  8
WIDOCZNE__ISO_
 10
177.6663186791172109
 20
128.9734062028406925
 30
0.0
 11
177.6663186791172109
 21
137.4734062028406925
 31
0.0
  0
LINE
  5
161
  8
WIDOCZNE__ISO_
 10
174.6663186791172109
 20
163.9734062028406925
 30
0.0
 11
142.6663186791159887
 21
163.9734062028406925
 31
0.0
  0
LINE
  5
162
  8
WIDOCZNE__ISO_
 10
177.6663186791172109
 20
152.4734062028406925
 30
0.0
 11
127.6663186791171967
 21
152.4734062028406925
 31
0.0
  0
LINE
  5
163
  8
WIDOCZNE__ISO_
 10
177.6663186791172109
 20
137.4734062028406925
 30
0.0
 11
139.6663186791172109
 21
137.4734062028406925
 31
0.0
  0
LINE
  5
164
  8
WIDOCZNE__ISO_
 10
174.6663186791172109
 20
125.9734062028407067
 30
0.0
 11
142.6663186791172961
 21
125.9734062028407067
 31
0.0
  0
LINE
  5
165
  8
WIDOCZNE__ISO_
 10
198.0663186791173018
 20
128.4234062028407095
 30
0.0
 11
186.0663186791173018
 21
128.4234062028407095
 31
0.0
  0
ARC
  5
166
  8
WIDOCZNE__ISO_
 10
186.0663186791173018
 20
131.7234062028406925
 30
0.0
 40
3.2999999999999998
 50
90.0
 51
270.0
  0
LINE
  5
167
  8
WIDOCZNE__ISO_
 10
198.0663186791173018
 20
154.9234062028407095
 30
0.0
 11
186.0663186791173018
 21
154.9234062028407095
 31
0.0
  0
ARC
  5
168
  8
WIDOCZNE__ISO_
 10
186.0663186791173018
 20
158.2234062028406925
 30
0.0
 40
3.2999999999999998
 50
90.0
 51
270.0
  0
LINE
  5
169
  8
WIDOCZNE__ISO_
 10
186.0663186791173018
 20
135.0234062028407038
 30
0.0
 11
198.0663186791173018
 21
135.0234062028407038
 31
0.0
  0
ARC
  5
16A
  8
WIDOCZNE__ISO_
 10
198.0663186791173018
 20
131.7234062028406925
 30
0.0
 40
3.2999999999999998
 50
270.0
 51
90.0
  0
LINE
  5
16B
  8
WIDOCZNE__ISO_
 10
186.0663186791173018
 20
161.5234062028407038
 30
0.0
 11
198.0663186791173018
 21
161.5234062028407038
 31
0.0
  0
ARC
  5
16C
  8
WIDOCZNE__ISO_
 10
198.0663186791173018
 20
158.2234062028406925
 30
0.0
 40
3.2999999999999998
 50
270.0
 51
90.0
  0
ARC
  5
16D
  8
WIDOCZNE__ISO_
 10
203.0663186791184955
 20
160.9734062028418862
 30
0.0
 40
2.9999999999987761
 50
0.0
 51
90.0000000000231068
  0
ARC
  5
16E
  8
WIDOCZNE__ISO_
 10
181.066318679116705
 20
160.9734062028412893
 30
0.0
 40
2.9999999999993889
 50
89.999999999988475
 51
180.0
  0
ARC
  5
16F
  8
WIDOCZNE__ISO_
 10
203.0663186791184955
 20
128.9734062028394987
 30
0.0
 40
2.9999999999987832
 50
270.0
 51
0.0
  0
ARC
  5
170
  8
WIDOCZNE__ISO_
 10
181.066318679116705
 20
128.9734062028400956
 30
0.0
 40
2.9999999999993898
 50
180.0
 51
270.0000000000114824
  0
LINE
  5
171
  8
WIDOCZNE__ISO_
 10
181.0663186791173018
 20
125.9734062028407067
 30
0.0
 11
203.0663186791184955
 21
125.9734062028407067
 31
0.0
  0
LINE
  5
172
  8
WIDOCZNE__ISO_
 10
181.0663186791173018
 20
163.9734062028406925
 30
0.0
 11
203.0663186791173018
 21
163.9734062028406925
 31
0.0
  0
LINE
  5
173
  8
WIDOCZNE__ISO_
 10
178.0663186791173018
 20
152.4734062028406925
 30
0.0
 11
178.0663186791173018
 21
160.9734062028406925
 31
0.0
  0
LINE
  5
174
  8
WIDOCZNE__ISO_
 10
206.0663186791173018
 20
152.4734062028406925
 30
0.0
 11
206.0663186791173018
 21
160.9734062028406925
 31
0.0
  0
LINE
  5
175
  8
WIDOCZNE__ISO_
 10
178.0663186791173018
 20
128.9734062028406925
 30
0.0
 11
178.0663186791173018
 21
137.4734062028406925
 31
0.0
  0
LINE
  5
176
  8
WIDOCZNE__ISO_
 10
178.0663186791173018
 20
152.4734062028406925
 30
0.0
 11
178.0663186791173018
 21
137.4734062028406925
 31
0.0
  0
LINE
  5
177
  8
WIDOCZNE__ISO_
 10
206.0663186791173018
 20
128.9734062028406925
 30
0.0
 11
206.0663186791173018
 21
137.4734062028406925
 31
0.0
  0
LINE
  5
178
  8
WIDOCZNE__ISO_
 10
178.0663186791173018
 20
137.4734062028406925
 30
0.0
 11
206.0663186791173018
 21
137.4734062028406925
 31
0.0
  0
LINE
  5
179
  8
WIDOCZNE__ISO_
 10
206.0663186791173018
 20
152.4734062028406925
 30
0.0
 11
206.0663186791173018
 21
137.4734062028406925
 31
0.0
  0
LINE
  5
17A
  8
WIDOCZNE__ISO_
 10
178.0663186791173018
 20
152.4734062028406925
 30
0.0
 11
206.0663186791173018
 21
152.4734062028406925
 31
0.0
  0
LINE
  5
17B
  8
WIDOCZNE__ISO_
 10
139.6663186791172961
 20
135.6329202240754057
 30
0.0
 11
139.6663186791172961
 21
136.8636616378933866
 31
0.0
  0
LINE
  5
17C
  8
WIDOCZNE__ISO_
 10
139.6663186791172961
 20
135.632920224075491
 30
0.0
 11
139.6663186791172961
 21
134.0354427687393866
 31
0.0
  0
LINE
  5
17D
  8
WIDOCZNE__ISO_
 10
139.6663186791172961
 20
121.291513249355404
 30
0.0
 11
139.6663186791172961
 21
134.0354427687393866
 31
0.0
  0
LINE
  5
17E
  8
WIDOCZNE__ISO_
 10
139.6663186791172961
 20
121.291513249355404
 30
0.0
 11
139.6663186791172961
 21
119.5915132493551027
 31
0.0
  0
LINE
  5
17F
  8
WIDOCZNE__ISO_
 10
139.6663186791172961
 20
136.8636616378933866
 30
0.0
 11
139.6663186791172961
 21
137.6804301299333133
 31
0.0
  0
LINE
  5
180
  8
WIDOCZNE__ISO_
 10
127.6663186791172961
 20
124.226149895757402
 30
0.0
 11
136.1663186791172961
 21
124.226149895757402
 31
0.0
  0
LINE
  5
181
  8
WIDOCZNE__ISO_
 10
127.6663186791172961
 20
122.9954084819383979
 30
0.0
 11
127.6663186791172961
 21
124.226149895757402
 31
0.0
  0
LINE
  5
182
  8
WIDOCZNE__ISO_
 10
127.6663186791172961
 20
122.9954084819383979
 30
0.0
 11
127.6663186791172961
 21
121.397931026602393
 31
0.0
  0
LINE
  5
183
  8
WIDOCZNE__ISO_
 10
136.1663186791172961
 20
136.8636616378933866
 30
0.0
 11
136.1663186791172961
 21
135.6329202240754057
 31
0.0
  0
LINE
  5
184
  8
WIDOCZNE__ISO_
 10
136.1663186791172961
 20
134.0354427687393866
 30
0.0
 11
136.1663186791172961
 21
121.397931026602393
 31
0.0
  0
LINE
  5
185
  8
WIDOCZNE__ISO_
 10
136.1663186791172961
 20
134.0354427687393866
 30
0.0
 11
136.1663186791172961
 21
135.632920224075491
 31
0.0
  0
LINE
  5
186
  8
WIDOCZNE__ISO_
 10
136.1663186791172961
 20
136.8636616378933866
 30
0.0
 11
139.6663186791172961
 21
136.8636616378933866
 31
0.0
  0
LINE
  5
187
  8
WIDOCZNE__ISO_
 10
127.6663186791172961
 20
124.226149895757402
 30
0.0
 11
127.6663186791172961
 21
137.6804301299333133
 31
0.0
  0
LINE
  5
188
  8
WIDOCZNE__ISO_
 10
127.6663186791172961
 20
121.291513249355404
 30
0.0
 11
127.6663186791172961
 21
119.5915132493551027
 31
0.0
  0
LINE
  5
189
  8
WIDOCZNE__ISO_
 10
127.6663186791172961
 20
121.291513249355404
 30
0.0
 11
127.6663186791172961
 21
121.397931026602393
 31
0.0
  0
LINE
  5
18A
  8
WIDOCZNE__ISO_
 10
177.6663186791172109
 20
148.8636616378933866
 30
0.0
 11
178.0663186791173018
 21
148.8636616378933866
 31
0.0
  0
LINE
  5
18B
  8
WIDOCZNE__ISO_
 10
177.6663186791172109
 20
140.8636616378933866
 30
0.0
 11
178.0663186791173018
 21
140.8636616378933866
 31
0.0
  0
LINE
  5
18C
  8
WIDOCZNE__ISO_
 10
127.6663186791172961
 20
119.5915132493551027
 30
0.0
 11
139.6663186791172961
 21
119.5915132493551027
 31
0.0
  0
LINE
  5
18D
  8
WIDOCZNE__ISO_
 10
254.8888968227358873
 20
137.4734062028406925
 30
0.0
 11
254.8888968227358873
 21
140.2896577040419004
 31
0.0
  0
LINE
  5
18E
  8
WIDOCZNE__ISO_
 10
258.388896822736001
 20
140.2896577040419004
 30
0.0
 11
258.388896822736001
 21
137.6804301299333133
 31
0.0
  0
ARC
  5
18F
  8
WIDOCZNE__ISO_
 10
256.6388968227358873
 20
144.9734062028406925
 30
0.0
 40
5.0
 50
290.4873151147227759
 51
249.5126848852773094
  0
ARC
  5
190
  8
WIDOCZNE__ISO_
 10
256.6388968227358873
 20
144.9734062028406925
 30
0.0
 40
7.5
 50
283.4933988215516933
 51
90.0
  0
LINE
  5
191
  8
WIDOCZNE__ISO_
 10
248.1388968227358873
 20
152.4734062028406925
 30
0.0
 11
256.6388968227358873
 21
152.4734062028406925
 31
0.0
  0
LINE
  5
192
  8
WIDOCZNE__ISO_
 10
248.1388968227358873
 20
137.4734062028406925
 30
0.0
 11
248.1388968227358873
 21
152.4734062028406925
 31
0.0
  0
LINE
  5
193
  8
WIDOCZNE__ISO_
 10
248.1388968227358873
 20
137.4734062028406925
 30
0.0
 11
254.8888968227358873
 21
137.4734062028406925
 31
0.0
  0
LINE
  5
194
  8
WIDOCZNE__ISO_
 10
253.1388968227404064
 20
125.9734062028407067
 30
0.0
 11
253.1388968227394969
 21
128.9734062028406925
 31
0.0
  0
LINE
  5
195
  8
WIDOCZNE__ISO_
 10
248.1388968227394969
 20
128.9734062028406925
 30
0.0
 11
248.1388968227404064
 21
125.9734062028407067
 31
0.0
  0
LINE
  5
196
  8
WIDOCZNE__ISO_
 10
253.1388968227404064
 20
125.9734062028407067
 30
0.0
 11
248.1388968227404064
 21
125.9734062028407067
 31
0.0
  0
LINE
  5
197
  8
WIDOCZNE__ISO_
 10
253.1388968227394969
 20
134.4734062028406925
 30
0.0
 11
253.1388968227394969
 21
128.9734062028406925
 31
0.0
  0
LINE
  5
198
  8
WIDOCZNE__ISO_
 10
248.1388968227394969
 20
128.9734062028406925
 30
0.0
 11
248.1388968227394969
 21
134.4734062028406925
 31
0.0
  0
LINE
  5
199
  8
WIDOCZNE__ISO_
 10
253.1388968227385874
 20
137.4734062028406925
 30
0.0
 11
253.1388968227394969
 21
134.4734062028406925
 31
0.0
  0
LINE
  5
19A
  8
WIDOCZNE__ISO_
 10
248.1388968227394969
 20
134.4734062028406925
 30
0.0
 11
248.1388968227385874
 21
137.4734062028406072
 31
0.0
  0
LINE
  5
19B
  8
WIDOCZNE__ISO_
 10
253.1388968227394969
 20
155.4734062028406925
 30
0.0
 11
253.1388968227385874
 21
152.4734062028406925
 31
0.0
  0
LINE
  5
19C
  8
WIDOCZNE__ISO_
 10
248.1388968227385874
 20
152.4734062028406925
 30
0.0
 11
248.1388968227394969
 21
155.4734062028406925
 31
0.0
  0
LINE
  5
19D
  8
WIDOCZNE__ISO_
 10
253.1388968227394969
 20
160.9734062028406925
 30
0.0
 11
253.1388968227394969
 21
155.4734062028406925
 31
0.0
  0
LINE
  5
19E
  8
WIDOCZNE__ISO_
 10
248.1388968227394969
 20
155.4734062028406925
 30
0.0
 11
248.1388968227394969
 21
160.9734062028406925
 31
0.0
  0
LINE
  5
19F
  8
WIDOCZNE__ISO_
 10
253.1388968227394969
 20
160.9734062028406925
 30
0.0
 11
253.1388968227404064
 21
163.9734062028406925
 31
0.0
  0
LINE
  5
1A0
  8
WIDOCZNE__ISO_
 10
253.1388968227404064
 20
163.9734062028406925
 30
0.0
 11
248.1388968227404064
 21
163.9734062028406925
 31
0.0
  0
LINE
  5
1A1
  8
WIDOCZNE__ISO_
 10
248.1388968227404064
 20
163.9734062028406925
 30
0.0
 11
248.1388968227394969
 21
160.9734062028406925
 31
0.0
  0
LINE
  5
1A2
  8
WIDOCZNE__ISO_
 10
261.770331066389474
 20
122.9954084819383979
 30
0.0
 11
258.3888968227358873
 21
124.226149895757402
 31
0.0
  0
ARC
  5
1A3
  8
WIDOCZNE__ISO_
 10
261.1888968227365808
 20
121.3979310266029046
 30
0.0
 40
1.6999999999992319
 50
0.0
 51
70.0000000000202931
  0
LINE
  5
1A4
  8
WIDOCZNE__ISO_
 10
258.3888968227383884
 20
136.8636616378933866
 30
0.0
 11
261.7703310663919751
 21
135.6329202240754057
 31
0.0
  0
LINE
  5
1A5
  8
WIDOCZNE__ISO_
 10
262.8888968227383884
 20
134.0354427687393866
 30
0.0
 11
262.8888968227383884
 21
121.397931026602393
 31
0.0
  0
ARC
  5
1A6
  8
WIDOCZNE__ISO_
 10
261.1888968227365808
 20
134.0354427687381076
 30
0.0
 40
1.700000000001828
 50
0.0
 51
69.9999999999581206
  0
LINE
  5
1A7
  8
WIDOCZNE__ISO_
 10
258.3888968227358873
 20
124.226149895757402
 30
0.0
 11
258.3888968227358873
 21
140.1799131390943955
 31
0.0
  0
ARC
  5
1A8
  8
WIDOCZNE__ISO_
 10
256.6388968227358873
 20
144.8636616378933013
 30
0.0
 40
5.0000000000001013
 50
290.4873151147223211
 51
249.5126848852777925
  0
LINE
  5
1A9
  8
WIDOCZNE__ISO_
 10
254.8888968227358873
 20
140.1799131390943955
 30
0.0
 11
254.8888968227358873
 21
122.9657763269793946
 31
0.0
  0
ARC
  5
1AA
  8
WIDOCZNE__ISO_
 10
256.5888968227350801
 20
122.9657763269788973
 30
0.0
 40
1.6999999999992521
 50
180.0
 51
250.0000000000181046
  0
LINE
  5
1AB
  8
WIDOCZNE__ISO_
 10
256.0074625790821869
 20
121.3682988716434039
 30
0.0
 11
260.6074625790823234
 21
119.6940357940193991
 31
0.0
  0
ARC
  5
1AC
  8
WIDOCZNE__ISO_
 10
261.1888968227368082
 20
121.2915132493541961
 30
0.0
 40
1.69999999999913
 50
249.9999999999594138
 51
0.0
  0
LINE
  5
1AD
  8
WIDOCZNE__ISO_
 10
262.8888968227358873
 20
121.291513249355404
 30
0.0
 11
262.8888968227358873
 21
121.397931026602393
 31
0.0
  0
LINE
  5
1AE
  8
ZNACZNIK_śRODKA__ISO_
  6
CHAIN
 10
164.745092955012808
 20
158.1136616378933866
 30
0.0
 11
152.745092955012808
 21
158.1136616378933866
 31
0.0
  0
LINE
  5
1AF
  8
ZNACZNIK_śRODKA__ISO_
  6
CHAIN
 10
158.745092955012808
 20
164.1136616378933866
 30
0.0
 11
158.745092955012808
 21
152.1136616378935003
 31
0.0
  0
LINE
  5
1B0
  8
ZNACZNIK_śRODKA__ISO_
  6
CHAIN
 10
174.4663186791171938
 20
158.2234062028406925
 30
0.0
 11
163.6663186791172961
 21
158.2234062028406925
 31
0.0
  0
LINE
  5
1B1
  8
ZNACZNIK_śRODKA__ISO_
  6
CHAIN
 10
168.6663186791172961
 20
164.0234062028407038
 30
0.0
 11
168.6663186791172961
 21
152.4234062028407095
 31
0.0
  0
LINE
  5
1B2
  8
ZNACZNIK_śRODKA__ISO_
  6
CHAIN
 10
153.6663186791172961
 20
131.7234062028406925
 30
0.0
 11
142.8663186791171995
 21
131.7234062028406925
 31
0.0
  0
LINE
  5
1B3
  8
ZNACZNIK_śRODKA__ISO_
  6
CHAIN
 10
148.6663186791172961
 20
137.5234062028407038
 30
0.0
 11
148.6663186791172961
 21
125.9234062028406953
 31
0.0
  0
LINE
  5
1B4
  8
ZNACZNIK_śRODKA__ISO_
  6
CHAIN
 10
174.4663186791171938
 20
131.7234062028406925
 30
0.0
 11
163.6663186791172961
 21
131.7234062028406925
 31
0.0
  0
LINE
  5
1B5
  8
ZNACZNIK_śRODKA__ISO_
  6
CHAIN
 10
168.6663186791172961
 20
137.5234062028407038
 30
0.0
 11
168.6663186791172961
 21
125.9234062028406953
 31
0.0
  0
LINE
  5
1B6
  8
ZNACZNIK_śRODKA__ISO_
  6
CHAIN
 10
164.745092955012808
 20
131.6136616378933866
 30
0.0
 11
152.745092955012808
 21
131.6136616378933866
 31
0.0
  0
LINE
  5
1B7
  8
ZNACZNIK_śRODKA__ISO_
  6
CHAIN
 10
158.745092955012808
 20
137.6136616378933866
 30
0.0
 11
158.745092955012808
 21
125.6136616378934008
 31
0.0
  0
LINE
  5
1B8
  8
ZNACZNIK_śRODKA__ISO_
  6
CHAIN
 10
153.6663186791172961
 20
158.2234062028406925
 30
0.0
 11
142.8663186791171995
 21
158.2234062028406925
 31
0.0
  0
LINE
  5
1B9
  8
ZNACZNIK_śRODKA__ISO_
  6
CHAIN
 10
148.6663186791172961
 20
164.0234062028407038
 30
0.0
 11
148.6663186791172961
 21
152.4234062028407095
 31
0.0
  0
LINE
  5
1BA
  8
ZNACZNIK_śRODKA__ISO_
  6
CHAIN
 10
191.0663186791173018
 20
158.2234062028406925
 30
0.0
 11
180.2663186791172905
 21
158.2234062028406925
 31
0.0
  0
LINE
  5
1BB
  8
ZNACZNIK_śRODKA__ISO_
  6
CHAIN
 10
186.0663186791173018
 20
164.0234062028407038
 30
0.0
 11
186.0663186791173018
 21
152.4234062028407095
 31
0.0
  0
LINE
  5
1BC
  8
ZNACZNIK_śRODKA__ISO_
  6
CHAIN
 10
199.5161723919615042
 20
158.1136616378936139
 30
0.0
 11
187.5161723919615042
 21
158.1136616378936139
 31
0.0
  0
LINE
  5
1BD
  8
ZNACZNIK_śRODKA__ISO_
  6
CHAIN
 10
193.5161723919615042
 20
164.1136616378935003
 30
0.0
 11
193.5161723919615042
 21
152.1136616378936139
 31
0.0
  0
LINE
  5
1BE
  8
ZNACZNIK_śRODKA__ISO_
  6
CHAIN
 10
203.8663186791173132
 20
158.2234062028406925
 30
0.0
 11
193.0663186791173018
 21
158.2234062028406925
 31
0.0
  0
LINE
  5
1BF
  8
ZNACZNIK_śRODKA__ISO_
  6
CHAIN
 10
198.0663186791173018
 20
164.0234062028407038
 30
0.0
 11
198.0663186791173018
 21
152.4234062028407095
 31
0.0
  0
LINE
  5
1C0
  8
ZNACZNIK_śRODKA__ISO_
  6
CHAIN
 10
203.8663186791173132
 20
131.7234062028406925
 30
0.0
 11
193.0663186791173018
 21
131.7234062028406925
 31
0.0
  0
LINE
  5
1C1
  8
ZNACZNIK_śRODKA__ISO_
  6
CHAIN
 10
198.0663186791173018
 20
137.5234062028407038
 30
0.0
 11
198.0663186791173018
 21
125.9234062028406953
 31
0.0
  0
LINE
  5
1C2
  8
ZNACZNIK_śRODKA__ISO_
  6
CHAIN
 10
199.5161723919615895
 20
131.6136616378935003
 30
0.0
 11
187.5161723919615042
 21
131.6136616378935003
 31
0.0
  0
LINE
  5
1C3
  8
ZNACZNIK_śRODKA__ISO_
  6
CHAIN
 10
193.5161723919615895
 20
137.6136616378935003
 30
0.0
 11
193.5161723919615895
 21
125.6136616378935997
 31
0.0
  0
LINE
  5
1C4
  8
ZNACZNIK_śRODKA__ISO_
  6
CHAIN
 10
191.0663186791173018
 20
131.7234062028406925
 30
0.0
 11
180.2663186791172905
 21
131.7234062028406925
 31
0.0
  0
LINE
  5
1C5
  8
ZNACZNIK_śRODKA__ISO_
  6
CHAIN
 10
186.0663186791173018
 20
137.5234062028407038
 30
0.0
 11
186.0663186791173018
 21
125.9234062028406953
 31
0.0
  0
DIMENSION
  5
1C6
  8
WYMIAR__ISO_
  2
*D3
 10
206.0663186791173018
 20
191.6100254937458942
 30
0.0
 11
166.8663186791173132
 21
191.6100254937458942
 31
0.0
 70
   128
  1
 \fRoboto|b0|i0;78-84
 13
127.6663186791172961
 23
137.6804301299333133
 33
0.0
 14
206.0663186791173018
 24
137.4734062028406925
 34
0.0
1001
ACAD
1000
DSTYLE
1002
{
1070
   287
1070
     1
1070
   172
1070
     0
1070
   289
1070
     1
1070
    74
1070
     0
1070
   271
1070
     2
1070
   147
1040
0.762
1070
    72
1070
     0
1070
    71
1070
     0
1070
   272
1070
     2
1070
    48
1040
0.0
1070
    47
1040
0.0
1002
}
  0
DIMENSION
  5
2B0
  8
WYMIAR__ISO_
  2
*D4
 10
178.0663186791173018
 20
184.7285185550784092
 30
0.0
 11
188.2935642651630985
 21
184.7285185550784092
 31
0.0
 70
   128
  1
 \fRoboto|b0|i0;0-4
 13
177.6663186791172109
 23
160.9734062028406925
 33
0.0
 14
178.0663186791173018
 24
160.9734062028406925
 34
0.0
1001
ACAD
1000
DSTYLE
1002
{
1070
   287
1070
     1
1070
   172
1070
     1
1070
   289
1070
     1
1070
    74
1070
     0
1070
   271
1070
     2
1070
   147
1040
0.762
1070
    72
1070
     0
1070
    71
1070
     0
1070
   272
1070
     2
1070
    48
1040
0.0
1070
    47
1040
0.0
1002
}
  0
DIMENSION
  5
3B9
  8
WYMIAR__ISO_
  2
*D5
 10
177.6663186791172109
 20
175.5724109115323017
 30
0.0
 11
158.6663186791172961
 21
175.5724109115323017
 31
0.0
 70
   128
  1
<>
 13
139.6663186791172961
 23
160.9734062028406925
 33
0.0
 14
177.6663186791172109
 24
160.9734062028406925
 34
0.0
 50
180.0
1001
ACAD
1000
DSTYLE
1002
{
1070
   287
1070
     1
1070
   172
1070
     0
1070
   289
1070
     1
1070
    74
1070
     0
1070
   271
1070
     2
1070
   147
1040
0.762
1070
    72
1070
     0
1070
    71
1070
     0
1070
   272
1070
     2
1070
    48
1040
0.0
1070
    47
1040
0.0
1002
}
  0
DIMENSION
  5
4A6
  8
WYMIAR__ISO_
  2
*D6
 10
206.0663186791173018
 20
175.5724109115323017
 30
0.0
 11
192.0663186791173018
 21
175.5724109115323017
 31
0.0
 70
   128
  1
<>
 13
178.0663186791173018
 23
160.9734062028406925
 33
0.0
 14
206.0663186791173018
 24
160.9734062028406925
 34
0.0
1001
ACAD
1000
DSTYLE
1002
{
1070
   287
1070
     1
1070
   172
1070
     0
1070
   289
1070
     1
1070
    74
1070
     0
1070
   271
1070
     2
1070
   147
1040
0.762
1070
    72
1070
     0
1070
    71
1070
     0
1070
   272
1070
     2
1070
    48
1040
0.0
1070
    47
1040
0.0
1002
}
  0
DIMENSION
  5
593
  8
WYMIAR__ISO_
  2
*D7
 10
264.1388968227358873
 20
179.1284068462441041
 30
0.0
 11
256.1388968227358873
 21
179.1284068462441041
 31
0.0
 70
   128
  1
<>
 13
248.1388968227358873
 23
152.4734062028406925
 33
0.0
 14
264.1388968227358873
 24
144.9734062028406925
 34
0.0
1001
ACAD
1000
DSTYLE
1002
{
1070
   287
1070
     1
1070
   172
1070
     0
1070
   289
1070
     1
1070
    74
1070
     0
1070
   271
1070
     2
1070
   147
1040
0.762
1070
    72
1070
     0
1070
    71
1070
     0
1070
   272
1070
     2
1070
    48
1040
0.0
1070
    47
1040
0.0
1002
}
  0
LINE
  5
680
  8
ZNACZNIK_śRODKA__ISO_
  6
CHAIN
 10
266.6388968227358873
 20
144.9734062028406925
 30
0.0
 11
251.6388968227358873
 21
144.9734062028406925
 31
0.0
  0
LINE
  5
681
  8
ZNACZNIK_śRODKA__ISO_
  6
CHAIN
 10
256.6388968227358873
 20
154.9734062028406925
 30
0.0
 11
256.6388968227358873
 21
139.9734062028406925
 31
0.0
  0
DIMENSION
  5
682
  8
WYMIAR__ISO_
  2
*D8
 10
253.1388968227394969
 20
169.4454356559787982
 30
0.0
 11
250.6388968227394116
 21
169.4454356559787982
 31
0.0
 70
   128
  1
<>
 13
248.1388968227394969
 23
160.9734062028406925
 33
0.0
 14
253.1388968227394969
 24
160.9734062028406925
 34
0.0
1001
ACAD
1000
DSTYLE
1002
{
1070
   287
1070
     1
1070
   172
1070
     1
1070
   289
1070
     1
1070
    74
1070
     0
1070
   271
1070
     2
1070
   147
1040
0.762
1070
    72
1070
     0
1070
    71
1070
     0
1070
   272
1070
     2
1070
    48
1040
0.0
1070
    47
1040
0.0
1002
}
  0
DIMENSION
  5
78B
  8
WYMIAR__ISO_
  2
*D9
 10
186.0663186791173018
 20
115.9234062028406953
 30
0.0
 11
177.3663186791173132
 21
115.9234062028406953
 31
0.0
 70
   128
  1
 \fRoboto|b0|i0;17-21
 13
168.6663186791172961
 23
125.9234062028406953
 33
0.0
 14
186.0663186791173018
 24
125.9234062028406953
 34
0.0
 50
180.0
1001
ACAD
1000
DSTYLE
1002
{
1070
   287
1070
     1
1070
   172
1070
     0
1070
   289
1070
     1
1070
    74
1070
     0
1070
   271
1070
     2
1070
   147
1040
0.762
1070
    72
1070
     0
1070
    71
1070
     0
1070
   272
1070
     2
1070
    48
1040
0.0
1070
    47
1040
0.0
1002
}
  0
DIMENSION
  5
878
  8
WYMIAR__ISO_
  2
*D10
 10
198.0663186791173018
 20
100.4355617375230025
 30
0.0
 11
173.3663186791173132
 21
100.4355617375230025
 31
0.0
 70
   128
  1
 \fRoboto|b0|i0;49-53
 13
148.6663186791172961
 23
125.9234062028406953
 33
0.0
 14
198.0663186791173018
 24
125.9234062028406953
 34
0.0
 50
180.0
1001
ACAD
1000
DSTYLE
1002
{
1070
   287
1070
     1
1070
   172
1070
     0
1070
   289
1070
     1
1070
    74
1070
     0
1070
   271
1070
     2
1070
   147
1040
0.762
1070
    72
1070
     0
1070
    71
1070
     0
1070
   272
1070
     2
1070
    48
1040
0.0
1070
    47
1040
0.0
1002
}
  0
DIMENSION
  5
965
  8
WYMIAR__ISO_
  2
*D11
 10
177.6663186791172109
 20
184.7285185550784092
 30
0.0
 11
152.6663186791172961
 21
184.7285185550784092
 31
0.0
 70
   128
  1
<>
 13
127.6663186791172961
 23
137.6804301299333133
 33
0.0
 14
177.6663186791172109
 24
160.9734062028406925
 34
0.0
1001
ACAD
1000
DSTYLE
1002
{
1070
   287
1070
     1
1070
   172
1070
     0
1070
   289
1070
     1
1070
    74
1070
     0
1070
   271
1070
     2
1070
   147
1040
0.762
1070
    72
1070
     0
1070
    71
1070
     0
1070
   272
1070
     2
1070
    48
1040
0.0
1070
    47
1040
0.0
1002
}
  0
DIMENSION
  5
A52
  8
WYMIAR__ISO_
  2
*D12
 10
216.1672376958779012
 20
161.5234062028407038
 30
0.0
 11
216.1672376958779012
 21
145.369739536173995
 31
0.0
 70
   128
  1
<>
 13
198.0663186791171881
 23
154.9234062028407095
 33
0.0
 14
198.0663186791171881
 24
161.5234062028407038
 34
0.0
 50
90.0
1001
ACAD
1000
DSTYLE
1002
{
1070
   287
1070
     1
1070
   172
1070
     1
1070
   289
1070
     1
1070
    74
1070
     0
1070
   271
1070
     2
1070
   147
1040
0.762
1070
    72
1070
     0
1070
    71
1070
     0
1070
   272
1070
     2
1070
    48
1040
0.0
1070
    47
1040
0.0
1002
}
  0
DIMENSION
  5
B64
  8
WYMIAR__ISO_
  2
*D13
 10
112.666318679116003
 20
163.9734062028406925
 30
0.0
 11
112.6663186791161024
 21
141.7824597260978976
 31
0.0
 70
   128
  1
<>
 13
127.6663186791172961
 23
119.5915132493551027
 33
0.0
 14
142.6663186791161024
 24
163.9734062028406925
 34
0.0
 50
270.0
1001
ACAD
1000
DSTYLE
1002
{
1070
   287
1070
     1
1070
   172
1070
     0
1070
   289
1070
     1
1070
    74
1070
     0
1070
   271
1070
     0
1070
   147
1040
0.762
1070
    72
1070
     0
1070
    71
1070
     0
1070
   272
1070
     2
1070
    48
1040
0.0
1070
    47
1040
0.0
1002
}
  0
ENDSEC
  0
EOF
